Статистика раздачи
Размер:  1,71 GB   |    Зарегистрирован:  1 год 1 месяц   |    Скачан:  0 раз
DL-List: Нет

Полного источника не было: Никогда

 
     
 
 

Гость ®

Пол:
Не указан

Хижина в лесу
The Cabin in the Woods
Open Matte Страна: США
Жанр: ужасы
Год выпуска: 2011
Продолжительность: 01:26:48-Перевод: Профессиональный (дублированный)
Субтитры: нет
Оригинальная аудиодорожка: нет-Режиссер: Дрю Годдард / Drew Goddard
В ролях: Кристен Коннолли, Крис Хемсворт, Анна Хатчисон, Фрэн Кранц, Джесси Уильямс, Брэдли Уитфорд, Ричард Дженкинс, Сигурни Уивер, Брайан Дж. Уайт, Эми Акер, Тим ДеЗарн, Том Ленк, Дэн Пэйн, Джоделль Ферланд, Дэн Ши, Майя Массар, Нельс Леннарсон, Чела Хорсдэл, Терри Чен, Хезер Дорксен, Патрик Сабонгуй, Филлип Митчелл, Элли Харви, Ричард Цетрон-Описание: Шумная компания студентов сбегает на уик-энд в изолированную от всего мира лесную хижину. Звучит знакомо? Тогда вы даже не представляете, что вас ждёт на самом деле-Доп. информация: Open Matte
Есть один баннер (смотрим 3 скрин)
Сэмпл: 1минута52сек-Качество видео: DVB
Формат видео: MKV
Видео: AVC, 720х576@1047x576, 16:9, 25,000 кадров/сек, 2622 Кбит/сек
Аудио: MP2, 48,0 КГц, 192 Кбит/сек, 2 канала (дубляж)

Сравнение с BD

MediaInfo

Общее
Уникальный идентификатор : 158949587093026573301535788340820379247 (0x779493B28A148ADB3A5FDC1CC019066F)
Полное имя : Хижина в лесу.ТВ3.mkv
Формат : Matroska
Версия формата : Version 4
Размер файла : 1,71 Гбайт
Продолжительность : 1 ч. 26 м.
Общий поток : 2817 Кбит/сек
Название фильма : Хижина в лесу / The Cabin in the Woods / 2011
Дата кодирования : UTC 2019-06-24 19:16:50
Программа кодирования : mkvmerge v35.0.0 ('All The Love In The World') 32-bit
Библиотека кодирования : libebml v1.3.9 + libmatroska v1.5.2
Видео
Идентификатор : 1
Формат : AVC
Формат/Информация : Advanced Video Codec
Профиль формата : Main@L3
Настройки формата : CABAC / 4 Ref Frames
Параметр CABAC формата : Да
Параметр RefFrames формата : 4 кадра
Параметр GOP формата : M=4, N=28
Идентификатор кодека : V_MPEG4/ISO/AVC
Продолжительность : 1 ч. 26 м.
Битрейт : 2622 Кбит/сек
Ширина : 720 пикселей
Высота : 576 пикселей
Соотношение сторон : 16:9
Режим частоты кадров : Переменный
Частота кадров : 50,000 кадров/сек
Частота кадров в оригинале : 25,000 кадров/сек
Стандарт вещания : Component
Цветовое пространство : YUV
Субдискретизация насыщенности : 4:2:0
Битовая глубина : 8 бит
Тип развёртки : Чересстрочная
Метод сохранения типа развёртки : Раздельные поля
Порядок развёртки : Верхнее поле первое
Бит/(Пиксели*Кадры) : 0.126
Размер потока : 1,59 Гбайт (93%)
Заголовок : Хижина в лесу / The Cabin in the Woods / 2011
Язык : English
Default : Да
Forced : Нет
Цветовой диапазон : Limited
Основные цвета : BT.601 PAL
Характеристики трансфера : BT.470 System B/G
Коэффициенты матрицы : BT.470 System B/G
Аудио
Идентификатор : 2
Формат : MPEG Audio
Версия формата : Version 1
Профиль формата : Layer 2
Идентификатор кодека : A_MPEG/L2
Идентификатор кодека/Подсказка : MP2
Продолжительность : 1 ч. 26 м.
Вид битрейта : Постоянный
Битрейт : 192 Кбит/сек
Каналы : 2 канала
Частота : 48,0 КГц
Частота кадров : 41,667 кадра/сек (1152 SPF)
Метод сжатия : С потерями
Размер потока : 119 Мбайт (7%)
Заголовок : дубляж
Язык : Russian
Default : Да
Forced : Нет

Скриншот c названием фильма

Скриншоты



[opentorrent.pro].t3917.torrent 
Торрент: Зарегистрирован [ 2019-06-25 16:34 ] · F45AAD8746E863CC76FA0074E33E14E35933F2D6

Скачать .torrent

Скачать

18 KB

Статус: проверено
Скачан: 0 раз
Размер: 1,71 GB  ·  Тип торрента
terms.php
Показать сообщения:    

Текущее время: 05-Авг 01:14

Часовой пояс: UTC ± 0



Вы не можете начинать темы
Вы не можете отвечать на сообщения
Вы не можете редактировать свои сообщения
Вы не можете удалять свои сообщения
Вы не можете голосовать в опросах
Вы не можете прикреплять файлы к сообщениям
Вы можете скачивать файлы