Статистика раздачи
Размер:  7,23 GB   |    Зарегистрирован:  1 год   |    Скачан:  0 раз
DL-List: Нет
Сидов:  18  [  0 KB/s  ]   Личеров:  2  [  0 KB/s  ]  
 
     
 
 

Гость ®

Пол:
Не указан

Пьяная фирма
Год выпуска: 2016
Производство: Russian World Studios
Жанр: комедия
Продолжительность: ~00:50:00 серия
Субтитры: нет
Режиссёр: Григорий Константинопольский
В ролях: Михаил Ефремов, Елизавета Боярская, Иван Макаревич, Виктория Исакова, Анна Михалкова, Марат Башаров, Юрий Колокольников, Ирина Апексимова, Алексей Кортнев, Александр Петров, Ингеборга Дапкунайте, Александр Стриженов, Андрей Мерзликин, Сергей Колтаков, Артём Ткаченко, Ян Цапник, Сергей Лобынцев, Диана Пентович, Виктория Толстоганова, Евгений Цыганов, Сергей Дмитриев, Сергей Томанов, Артём Мельничук, Денис Кукояка
Описание: Бывший врач-реаниматолог не от хорошей жизни трудится охранником. Однажды он узнает, что его дочери, с которой он не общался много лет, срочно требуются деньги. Чтобы собрать нужную сумму в короткий срок, герой сериала «Пьяная фирма» начинает работать «капельником». Его задача — выводить из запоя очень богатых людей.

Реклама: Нет.
Кинопоиск
Все раздачи сериала
Sample
Качество: WEBRip 1080p - ExKinoRay
Формат: MKV
Видео кодек: H.264
Аудио кодек: AC3
Видео: MPEG4 AVC Video, H264, 16:9, 1920x1080, 25 fps, ~5000 kbps, 0.096 bit/pixel
Аудио: AC3 Dolby Digital, 48.0 kHz, 2/0 (L,R) ch, 192 kbps

Внимание! Раздача ведётся путём добавления новых серий

Раздача ведётся путём добавления новых серий, при каждом добавлении создаётся новый торрент. Чтобы начать докачку новой серии, пользователям необходимо сделать следующее:
- Остановить скачивание.
- Удалить старый торрент у себя из клиента (старые серии удалять не надо).
- Скачать новый торрент и запустить его у себя в клиенте вместо старого, при этом указать клиенту путь в старую папку куда и должно происходить скачивание новых серий.
Ваш клиент при этом должен произвести хеширование (проверку) старой папки (если не производит сам - помогите ему сделать это), и будет докачивать только те серии которых у вас ещё нет. Старые серии при этом не удаляются, а продолжают раздаваться!
Если вы уже удалили старые серии, то предотвратить повторную закачку старых серий можно, отжав галочку в соответствующих местах при запуске нового торрента. По возможности, желательно не удалять старые серии как можно дольше, чтобы релизер не столько продолжал раздавать старые серии, а смог сконцентрироваться на новых.

MI

General
Unique ID : 231836640330283090346906975074376803329 (0xAE6A1CDF44FF86E6BC92B652E4C4E401)
Complete name : D:\Piyanaya.firma.2016.WEB-DL.(1080p).ExKinoRay\Piyanaya.firma.e01.2016.WEB-DL.(1080p).ExKinoRay.mkv
Format : Matroska
Format version : Version 2
File size : 1.80 GiB
Duration : 50 min 0 s
Overall bit rate mode : Constant
Overall bit rate : 5 144 kb/s
Encoded date : UTC 2019-03-29 14:10:28
Writing application : mkvmerge v5.8.0 ('No Sleep / Pillow') built on Sep 2 2012 15:37:04
Writing library : libebml v1.2.3 + libmatroska v1.3.0
Video
ID : 1
Format : AVC
Format/Info : Advanced Video Codec
Format profile : Baseline@L4
Format settings : 4 Ref Frames
Format settings, CABAC : No
Format settings, ReFrames : 4 frames
Codec ID : V_MPEG4/ISO/AVC
Duration : 50 min 0 s
Bit rate mode : Constant
Bit rate : 5 000 kb/s
Width : 1 920 pixels
Height : 1 080 pixels
Display aspect ratio : 16:9
Frame rate mode : Constant
Frame rate : 25.000 FPS
Standard : PAL
Color space : YUV
Chroma subsampling : 4:2:0
Bit depth : 8 bits
Scan type : Progressive
Bits/(Pixel*Frame) : 0.096
Stream size : 1.69 GiB (94%)
Language : Russian
Default : Yes
Forced : No
Color range : Limited
Color primaries : BT.709
Transfer characteristics : BT.709
Matrix coefficients : BT.709
Audio
ID : 2
Format : AC-3
Format/Info : Audio Coding 3
Codec ID : A_AC3
Duration : 50 min 0 s
Bit rate mode : Constant
Bit rate : 192 kb/s
Channel(s) : 2 channels
Channel positions : Front: L R
Sampling rate : 48.0 kHz
Frame rate : 31.250 FPS (1536 SPF)
Bit depth : 16 bits
Compression mode : Lossy
Stream size : 68.7 MiB (4%)
Language : Russian
Service kind : Complete Main
Default : Yes
Forced : No

Скриншоты


[opentorrent.pro].t3918.torrent 
Торрент: Зарегистрирован [ 2019-06-25 16:34 ] · 8C1F8D58BBB76B9BA174CBAE2BC7086398823C4C

Скачать .torrent

Скачать

37 KB

Статус: проверено
Скачан: 0 раз
Размер: 7,23 GB  ·  Тип торрента
terms.php
Показать сообщения:    

Текущее время: 13-Июл 10:11

Часовой пояс: UTC ± 0



Вы не можете начинать темы
Вы не можете отвечать на сообщения
Вы не можете редактировать свои сообщения
Вы не можете удалять свои сообщения
Вы не можете голосовать в опросах
Вы не можете прикреплять файлы к сообщениям
Вы можете скачивать файлы