Статистика раздачи
Размер:  1,46 GB   |    Зарегистрирован:  1 год 1 месяц   |    Скачан:  0 раз
DL-List: Нет

Полного источника не было: Никогда

 
     
 
 

Гость ®

Пол:
Не указан

Кладбище домашних животных / Pet Sematary
Страна: США
Жанр: ужасы, триллер
Год выпуска: 2019
Продолжительность: 01:41:21-Перевод: Профессиональный (многоголосый закадровый) | СВ Студия
Субтитры: нет
Оригинальная аудиодорожка: нет-Режиссер:
Кевин Колш / Kevin Kolsh, Деннис Уидмайер / Dennis Widmeyer-В ролях:
Джейсон Кларк, Эми Саймец, Джон Литгоу, Жете Лоранс, Хьюго Лавуа, Лукас Лавуа, Обсса Ахмед, Алисса Брук Ливайн, Мария Херрера, Фрэнк Скорпион-Описание:
Семья Луиса Крида переезжает в сельский дом, который, как выясняется, расположен по соседству с мрачным Кладбищем домашних животных. Именно здесь по совету соседа Луис хоронит кота Чёрча — любимца семьи, погибшего под колесами грузовика. Вскоре кот возвращается к любящему семейству, но, кажется, это уже не тот ласковый питомец, которого так любила дочь Луиса.- -Качество видео: WEB-DLRip
Формат видео: AVI
Видео: 720x304 (2.37:1), 24.000 fps, XviD build 73 ~1858 kbps avg, 0.35 bit/pixel
Аудио: 48 kHz, AC3 Dolby Digital, 2/0 (L,R) ch, ~192 kbps-Сэмпл-

MediaInfo

Код:Формат : AVI
Формат/Информация : Audio Video Interleave
Размер файла : 1,46 Гбайт
Продолжительность : 1 ч. 41 м.
Общий поток : 2059 Кбит/сек
Название фильма : Кладбище домашних животных_2019_WEB-DLRip
Программа кодирования : VirtualDubMod 1.5.10.3 | www.virtualdub-fr.org || (build 2550/release)
Авторское право : порошков
Видео
Идентификатор : 0
Формат : MPEG-4 Visual
Профиль формата : Advanced Simple@L5
Настройки формата : BVOP1 / Custom Matrix
Параметр BVOP формата : 1
Параметр QPel формата : Нет
Параметр GMC формата : Без точки перехода
Параметр матрицы формата : Выборочная
Идентификатор кодека : XVID
Идентификатор кодека/Подсказка : XviD
Продолжительность : 1 ч. 41 м.
Битрейт : 1859 Кбит/сек
Ширина : 720 пикселей
Высота : 304 пикселя
Соотношение сторон : 2,35:1
Частота кадров : 24,000 кадра/сек
Цветовое пространство : YUV
Субдискретизация насыщенности : 4:2:0
Битовая глубина : 8 бит
Тип развёртки : Прогрессивная
Метод сжатия : С потерями
Бит/(Пиксели*Кадры) : 0.354
Размер потока : 1,32 Гбайт (90%)
Библиотека кодирования : XviD 73
Аудио
Идентификатор : 1
Формат : AC-3
Формат/Информация : Audio Coding 3
Коммерческое название : Dolby Digital
Идентификатор кодека : 2000
Продолжительность : 1 ч. 40 м.
Вид битрейта : Постоянный
Битрейт : 192 Кбит/сек
Каналы : 2 канала
ChannelLayout : L R
Частота : 48,0 КГц
Частота кадров : 31,250 кадров/сек (1536 SPF)
Битовая глубина : 16 бит
Метод сжатия : С потерями
Размер потока : 138 Мбайт (9%)
Выравнивание : Разделение по промежуткам
Продолжительность промежутка : 42 мс. (1,01 видеокадр)
Время предзагрузки промежутка : 500 мс.
ServiceKind/String : Complete Main

Скриншоты


[opentorrent.pro].t3921.torrent 
Торрент: Зарегистрирован [ 2019-06-26 17:00 ] · A60DF95348DF18AC5ECED8A97FA654038F40EB6F

Скачать .torrent

Скачать

15 KB

Статус: проверено
Скачан: 0 раз
Размер: 1,46 GB  ·  Тип торрента
terms.php
Показать сообщения:    

Текущее время: 08-Авг 18:10

Часовой пояс: UTC ± 0



Вы не можете начинать темы
Вы не можете отвечать на сообщения
Вы не можете редактировать свои сообщения
Вы не можете удалять свои сообщения
Вы не можете голосовать в опросах
Вы не можете прикреплять файлы к сообщениям
Вы можете скачивать файлы