Статистика раздачи
Размер:  889 MB   |    Зарегистрирован:  1 год   |    Скачан:  0 раз
DL-List: Нет

Полного источника не было: Никогда

 
     
 
 

serzh ®

Пол:
Не указан
Стаж:
1 год 3 месяца
Сообщений:
442

Холодная жара / Cold Heat
Страна: США
Жанр: Боевик
Год выпуска: 1989
Продолжительность: 01:20:07
Перевод: Профессиональный (многоголосый закадровый) / дубляж Варус
Субтитры: нет
Оригинальная аудиодорожка: английский
Режиссер: Улли Ломмель / Ulli Lommel
В ролях: Джон Филлип Ло, Бритт Экланд, Роберт Сакки, Roy Summerset, Чэнс Майкл Корбитт,
Джоэнн Уоткинс, Грег Рундо, Джерри Фогель, Росс Эванс, Зеф Химел
Описание: Р. С. Мэллон, жестокий и расчетливый магнат из Лас-Вегаса, привык получать все, что захочет. Одержимый деньгами и властью, он мнит себя всемогущим, не гнушается грязными способами борьбы и безжалостно сокрушает любые помехи на своем пути.
Но наступил момент, когда Джеки Мэллон, его бывшая жена, осмелилась отнять у всесильного магната самое дорогое из принадлежащего ему - его десятилетнего сына, единственного наследника коррумпированной и могущественной мэллоновской империи.
Гнев Мэллона безграничен, но Джеки не желает уступать. Значит все средства в войне будут хороши! И кто сказал, что нанять мафиозную семью - не самая лучшая идея?
Доп. информация: Дорожка с Dub + MVO синхронизирована и наложена ale_x2008 при помощи Adobe Audition, Sony Vegas и VirtualDubMod.
За предоставленную аудиодорожку благодарим - Fleh_808

Релиз
Сэмпл: https://yadi.sk/i/5lBGGlo3MvANNQ
Качество видео: DVDRip
Формат видео: AVI
Видео: XviD build 47, 720x560 (1.29:1), 25 fps, 1152 kbps avg, 0.11 bit/pixel
Аудио: AC3 Dolby Digital, 48000Hz, 2/0 (L,R) ch (mono), 192 kbps avg
Аудио 2: AC3 Dolby Digital, 48000Hz, 2/0 (L,R) ch, 192 kbps avg

MediaInfo

Холодная жара - Cold Heat (by ale_x2008).avi
Format : AVI
Format/Info : Audio Video Interleave
File size : 889 MiB
Duration : 1 h 20 min
Overall bit rate : 1 551 kb/s
Movie name : Холодная жара - Cold Heat (by ale_x2008)
Director : by ale_x2008
Writing application : VirtualDubMod 1.5.10.2 (build 2540/release)
Copyright : Edich2
Comment : RuTracker.org
Video
ID : 0
Format : MPEG-4 Visual
Format profile : Advanced Simple@L5
Format settings : BVOP1 / Custom Matrix
Format settings, BVOP : 1
Format settings, QPel : No
Format settings, GMC : No warppoints
Format settings, Matrix : Custom
Codec ID : XVID
Codec ID/Hint : XviD
Duration : 1 h 20 min
Bit rate : 1 153 kb/s
Width : 720 pixels
Height : 560 pixels
Display aspect ratio : 1.286
Frame rate : 25.000 FPS
Color space : YUV
Chroma subsampling : 4:2:0
Bit depth : 8 bits
Scan type : Progressive
Compression mode : Lossy
Bits/(Pixel*Frame) : 0.114
Stream size : 661 MiB (74%)
Writing library : XviD 1.2.0.dev47 (UTC 2006-11-01)
Audio #1
ID : 1
Format : AC-3
Format/Info : Audio Coding 3
Codec ID : 2000
Duration : 1 h 20 min
Bit rate mode : Constant
Bit rate : 192 kb/s
Channel(s) : 2 channels
Channel positions : Front: L R
Sampling rate : 48.0 kHz
Frame rate : 31.250 FPS (1536 SPF)
Bit depth : 16 bits
Compression mode : Lossy
Stream size : 110 MiB (12%)
Alignment : Split accross interleaves
Interleave, duration : 40 ms (1.00 video frame)
Interleave, preload duratio : 500 ms
Service kind : Complete Main
Audio #2
ID : 2
Format : AC-3
Format/Info : Audio Coding 3
Codec ID : 2000
Duration : 1 h 20 min
Bit rate mode : Constant
Bit rate : 192 kb/s
Channel(s) : 2 channels
Channel positions : Front: L R
Sampling rate : 48.0 kHz
Frame rate : 31.250 FPS (1536 SPF)
Bit depth : 16 bits
Compression mode : Lossy
Stream size : 110 MiB (12%)
Alignment : Split accross interleaves
Interleave, duration : 40 ms (1.00 video frame)
Interleave, preload duratio : 500 ms
Service kind : Complete Main

Скриншоты


[opentorrent.pro].t3945.torrent 
Торрент: Зарегистрирован [ 2019-06-27 17:24 ] · 8C5EDFCAC854227684DECA831FDC394B2AD70B80

Скачать .torrent

Скачать

18 KB

Статус: проверено
Скачан: 0 раз
Размер: 889 MB  ·  Тип торрента
terms.php
Профиль [ЛС]
Показать сообщения:    

Текущее время: 07-Июл 05:45

Часовой пояс: UTC ± 0



Вы не можете начинать темы
Вы не можете отвечать на сообщения
Вы не можете редактировать свои сообщения
Вы не можете удалять свои сообщения
Вы не можете голосовать в опросах
Вы не можете прикреплять файлы к сообщениям
Вы можете скачивать файлы