Статистика раздачи
Размер:  1,45 GB   |    Зарегистрирован:  1 год   |    Скачан:  0 раз
DL-List: Нет
Сидов:  45  [  0 KB/s  ]   Личеров:  2  [  0 KB/s  ]  
 
     
 
 

Гость ®

Пол:
Не указан

Шазам!
Shazam!
«Хочешь спасти мир? Скажи...»
Страна: США
Жанр: фэнтези, боевик, комедия, приключения
Год выпуска: 2019
Продолжительность: 02:11:43
Перевод: Профессиональный (полное дублирование) [Blu-ray CEE]
Субтитры: русские (форсированные, полные)
Оригинальная аудиодорожка: нет
Режиссер: Дэвид Ф. Сандберг / David F. Sandberg
В ролях: Закари Ливай, Эшер Энджел, Джек Дилан Грейзер, Марк Стронг, Грэйс Фултон, Адам Броди, Джимон Хонсу, Фэйти Херман, Миган Гуд, Мишель Борт, Йен Чен, Росс Батлер
Описание: В каждом из нас живет супергерой, нужна лишь толика магии, чтобы он проявил себя. Билли Бэтсон должен прокричать всего лишь одно слово — ШАЗАМ! — чтобы из сообразительного четырнадцатилетнего мальчишки превратиться во вполне себе взрослого супергероя Шазама, а все благодаря древнему волшебнику. В душе он остается ребенком, пусть и во взрослом могучем теле, поэтому поступает так, как поступил бы любой подросток, получивший сверхспособности, — оттягивается на полную катушку в этой подросшей версии себя самого! А умеет ли он летать? А есть ли у него рентгеновское зрение? Может ли он стрелять молниями из рук? А может ли пропустить контрольную по обществознанию? Шазам проверяет границы своих возможностей с бесшабашностью расшалившегося ребенка.
Но ему придется быстро обрести контроль над своими способностями, чтобы сразиться со смертоносными силами зла доктора Таддеуса Сиваны.

Автор рипа: stalkerok
Сэмпл
Качество видео: BDRip-AVC | Исходник: Shazam.2019.BDREMUX.1080p.seleZen
Формат видео: MKV
Видео кодек: AVC
Аудио кодек: AC3
Видео: AVC, 1193 Кбит/сек, 874x366 (2.40:1), 23,976 кадр/сек
Аудио: AC3, 384 Кбит/сек, 48 КГц, 5.1 - русский
Навигация по главам: есть

x264/MediaInfo

---[Information] [27.06.2019 3:36:43] x264 [info]: frame I:1789 Avg QP:17.49 size: 54424
---[Information] [27.06.2019 3:36:43] x264 [info]: frame P:42621 Avg QP:21.34 size: 13625
---[Information] [27.06.2019 3:36:43] x264 [info]: frame B:145075 Avg QP:22.61 size: 3438
General
Unique ID : 335306928122483630819881627666121420692 (0xFC41C3ED877E08124FF27BCCACFEEF94)
Complete name : C:\temp\Shazam\Shazam.2019.BDRip.x264.Rus.stalkerok.New-Team.mkv
Format : Matroska
Format version : Version 4
File size : 1.45 GiB
Duration : 2 h 11 min
Overall bit rate : 1 577 kb/s
Movie name : Shazam! (2019) | Rip by stalkerok
Encoded date : UTC 2019-06-27 00:40:23
Writing application : mkvmerge v33.1.0 ('Primrose') 64-bit
Writing library : libebml v1.3.7 + libmatroska v1.5.0
Video
ID : 1
Format : AVC
Format/Info : Advanced Video Codec
Format profile : High@L4.1
Format settings : CABAC / 12 Ref Frames
Format settings, CABAC : Yes
Format settings, RefFrames : 12 frames
Codec ID : V_MPEG4/ISO/AVC
Duration : 2 h 11 min
Bit rate : 1 193 kb/s
Width : 874 pixels
Height : 366 pixels
Display aspect ratio : 2.40:1
Frame rate mode : Constant
Frame rate : 23.976 FPS
Color space : YUV
Chroma subsampling : 4:2:0
Bit depth : 8 bits
Scan type : Progressive
Bits/(Pixel*Frame) : 0.156
Stream size : 1.10 GiB (76%)
Title : Shazam! (2019) | Rip by stalkerok
Writing library : x264 core 157 r2969 d4099dd
Encoding settings : cabac=1 / ref=12 / deblock=1:-3:-2 / analyse=0x3:0x133 / me=umh / subme=10 / psy=1 / psy_rd=1.00:0.00 / mixed_ref=1 / me_range=32 / chroma_me=1 / trellis=2 / 8x8dct=1 / cqm=0 / deadzone=21,11 / fast_pskip=0 / chroma_qp_offset=-2 / threads=11 / lookahead_threads=2 / sliced_threads=0 / nr=0 / decimate=0 / interlaced=0 / bluray_compat=0 / constrained_intra=0 / bframes=15 / b_pyramid=2 / b_adapt=2 / b_bias=0 / direct=3 / weightb=1 / open_gop=0 / weightp=2 / keyint=240 / keyint_min=23 / scenecut=40 / intra_refresh=0 / rc_lookahead=60 / rc=2pass / mbtree=0 / bitrate=1193 / ratetol=1.0 / qcomp=0.65 / qpmin=0 / qpmax=69 / qpstep=4 / cplxblur=20.0 / qblur=0.5 / vbv_maxrate=50000 / vbv_bufsize=62500 / nal_hrd=none / filler=0 / ip_ratio=1.40 / pb_ratio=1.30 / aq=3:0.90 / zones=179629,188686,q=34
Default : Yes
Forced : No
Audio
ID : 2
Format : AC-3
Format/Info : Audio Coding 3
Commercial name : Dolby Digital
Codec ID : A_AC3
Duration : 2 h 11 min
Bit rate mode : Constant
Bit rate : 384 kb/s
Channel(s) : 6 channels
Channel layout : L R C LFE Ls Rs
Sampling rate : 48.0 kHz
Frame rate : 31.250 FPS (1536 SPF)
Bit depth : 16 bits
Compression mode : Lossy
Stream size : 362 MiB (24%)
Language : Russian
Service kind : Complete Main
Default : Yes
Forced : No
Text #1
ID : 3
Format : UTF-8
Codec ID : S_TEXT/UTF8
Codec ID/Info : UTF-8 Plain Text
Duration : 2 h 10 min
Bit rate : 2 b/s
Count of elements : 67
Stream size : 2.00 KiB (0%)
Title : forced
Language : Russian
Default : Yes
Forced : No
Text #2
ID : 4
Format : UTF-8
Codec ID : S_TEXT/UTF8
Codec ID/Info : UTF-8 Plain Text
Duration : 2 h 10 min
Bit rate : 65 b/s
Count of elements : 1756
Stream size : 62.9 KiB (0%)
Title : full
Language : Russian
Default : No
Forced : No
Menu
00:00:00.000 : en:Chapter 01
00:08:18.790 : en:Chapter 02
00:15:11.285 : en:Chapter 03
00:25:22.396 : en:Chapter 04
00:31:57.624 : en:Chapter 05
00:39:00.255 : en:Chapter 06
00:50:07.713 : en:Chapter 07
01:01:28.810 : en:Chapter 08
01:08:51.502 : en:Chapter 09
01:16:40.471 : en:Chapter 10
01:24:29.356 : en:Chapter 11
01:34:00.677 : en:Chapter 12
01:43:01.175 : en:Chapter 13
01:52:53.850 : en:Chapter 14
02:00:44.446 : en:Chapter 15

Скриншоты

[opentorrent.pro].t3960.torrent 
Торрент: Зарегистрирован [ 2019-06-27 17:24 ] · 3B4C2AD9909C282F6626420C1D6C9CD31C842EF2

Скачать .torrent

Скачать

15 KB

Статус: проверено
Скачан: 0 раз
Размер: 1,45 GB  ·  Тип торрента
terms.php
Показать сообщения:    

Текущее время: 09-Июл 10:09

Часовой пояс: UTC ± 0



Вы не можете начинать темы
Вы не можете отвечать на сообщения
Вы не можете редактировать свои сообщения
Вы не можете удалять свои сообщения
Вы не можете голосовать в опросах
Вы не можете прикреплять файлы к сообщениям
Вы можете скачивать файлы