Статистика раздачи
Размер:  33 MB   |    Зарегистрирован:  1 год   |    Скачан:  0 раз
DL-List: Нет

Полного источника не было: Никогда

 
     
 
 

Гость ®

Пол:
Не указан

Здравствуйте, родные
Страна: Россия
Жанр: мультфильм для взрослых
Продолжительность: 00:04:30
Год выпуска: 2019
Русские субтитры: нет
Режиссёр: Александр Васильев
Описание: Окружающая действительность глазами одиноко живущей бабушки.
Доп. информация: Лучший студенческий фильм - Фестиваль анимации в Суздале (2019)
Качество: WEBRip-AVC
Формат: MP4
Видео: 880 kbps, 1280х720 (16:9), 25.000 fps, AVC (High@L3.1)
Аудио: 128 kbps, 44.1 kHz, 2 channels, AAC (LC)
Субтитры: отсутствуют

Подробные технические данные

General
Complete name : Здравствуйте, родные (2019).mp4
Format : MPEG-4
Format profile : Base Media / Version 2
Codec ID : mp42
File size : 32.6 MiB
Duration : 4mn 30s
Overall bit rate mode : Variable
Overall bit rate : 1 011 Kbps
Encoded date : UTC 2019-05-14 16:59:57
Tagged date : UTC 2019-05-14 16:59:57
Writing application : Google
gsst : 0
gstd : 270095
Video
ID : 1
Format : AVC
Format/Info : Advanced Video Codec
Format profile : High@L3.1
Format settings, CABAC : Yes
Format settings, ReFrames : 3 frames
Codec ID : avc1
Codec ID/Info : Advanced Video Coding
Duration : 4mn 30s
Bit rate : 880 Kbps
Width : 1 280 pixels
Height : 720 pixels
Display aspect ratio : 16:9
Frame rate mode : Constant
Frame rate : 25.000 fps
Color space : YUV
Chroma subsampling : 4:2:0
Bit depth : 8 bits
Scan type : Progressive
Bits/(Pixel*Frame) : 0.038
Stream size : 28.3 MiB (87%)
Title : ISO Media file produced by Google Inc. Created on: 05/14/2019.
Encoded date : UTC 2019-05-14 16:59:57
Tagged date : UTC 2019-05-14 16:59:57
Color primaries : BT.709
Transfer characteristics : BT.709
Matrix coefficients : BT.709
Audio
ID : 2
Format : AAC
Format/Info : Advanced Audio Codec
Format profile : LC
Codec ID : 40
Duration : 4mn 30s
Bit rate mode : Variable
Bit rate : 128 Kbps
Channel(s) : 2 channels
Channel positions : Front: L R
Sampling rate : 44.1 KHz
Compression mode : Lossy
Stream size : 4.12 MiB (13%)
Title : ISO Media file produced by Google Inc. Created on: 05/14/2019.
Language : English
Encoded date : UTC 2019-05-14 16:59:57
Tagged date : UTC 2019-05-14 16:59:57

Скриншоты

[opentorrent.pro].t3975.torrent 
Торрент: Зарегистрирован [ 2019-06-28 15:49 ] · E4404478C0C85DD2B38BB09A8657B93FDDD1A459

Скачать .torrent

Скачать

11 KB

Статус: проверено
Скачан: 0 раз
Размер: 33 MB  ·  Тип торрента
terms.php
Показать сообщения:    

Текущее время: 02-Июл 09:12

Часовой пояс: UTC ± 0



Вы не можете начинать темы
Вы не можете отвечать на сообщения
Вы не можете редактировать свои сообщения
Вы не можете удалять свои сообщения
Вы не можете голосовать в опросах
Вы не можете прикреплять файлы к сообщениям
Вы можете скачивать файлы