Статистика раздачи
Размер:  717 MB   |    Зарегистрирован:  1 год 1 месяц   |    Скачан:  0 раз
DL-List: Нет

Полного источника не было: Никогда

 
     
 
 

karlll ®

Пол:
Не указан
Стаж:
1 год 4 месяца
Сообщений:
196

Мой маленький пони: Девочки из Эквестрии - Весенние каникулы
My Little Pony: Equestria Girls - Spring Breakdown
Страна: США, Канада
Жанр: Приключения, мультфильм, семейный, фэнтези
Продолжительность: 00:44:29
Год выпуска: 2019
Перевод: Профессиональный (дублированный) (SDI Media Russia) (по заказу Hasbro Studios)
Русские субтитры: нет
Режиссер: Иши Руделл, Катрина Хадли / Ishi Rudell, Katrina Hadley
Роли озвучивали: Эшли Болл, Андреа Либман, Ребекка Шойкет, Табита Сен-Жермен, Тара Стронг, Кэти Уэслак и другие
Описание: Студентки высшей школы Кантерлота во время весенних каникул отправились в морской круиз на шикарном лайнере. Все они хотят отдохнуть от учебы и повседневных дел, кроме непоседы Радуги Дэш, которая мечтает о борьбе со злой магией Эквестрии. Она пытается убедить всех остальных вместе искать опасность и непреднамеренно разрушает их веселье. Однако, чуть позже события принимают неожиданный поворот.
Предыдущие и альтернативные раздачи
Рейтинг:
Качество: WEBRip (Исходник)
Формат: AVI
Видео: XVID, 720x400 (16:9), 23.976 fps, ~1855 kbps
Аудио Rus: AC3, 48 kHz, 2 ch, 192 kbps (SDI Media Russia)
Аудио Eng: AC3, 48 kHz, 2 ch, 192 kbps (Original)

Скриншоты

Дополнительная информация

В раздаче находится профессиональный дубляж студии SDI Media Russia и оригинальная аудиодорожка. Данный рип подходит для просмотра на любых устройствах с поддержкой XVID. На трекере существуют раздачи и других специальных выпусков Equestria Girls.

Подробные технические данные

Общее
Полное имя : D:\Video\Mults\mlp.egs.spring.breakdown.2019.webrip.avi
Формат : AVI
Формат/Информация : Audio Video Interleave
Размер файла : 717 Мбайт
Продолжительность : 44 м. 29 с.
Общий поток : 2254 Кбит/сек
Программа кодирования : VirtualDubMod 1.5.10.2 (build 2542/release)
Библиотека кодирования : VirtualDubMod build 2542/release
Видео
Идентификатор : 0
Формат : MPEG-4 Visual
Профиль формата : Advanced Simple@L5
Настройки формата : Custom Matrix
Параметр BVOP формата : Нет
Параметр QPel формата : Нет
Параметр GMC формата : Без точки перехода
Параметр матрицы формата : Выборочная
Идентификатор кодека : XVID
Идентификатор кодека/Подсказка : XviD
Продолжительность : 44 м. 29 с.
Битрейт : 1855 Кбит/сек
Ширина : 720 пикселей
Высота : 400 пикселей
Соотношение сторон : 16:9
Частота кадров : 23,976 (24000/1001) кадра/сек
Цветовое пространство : YUV
Субдискретизация насыщенности : 4:2:0
Битовая глубина : 8 бит
Тип развёртки : Прогрессивная
Метод сжатия : С потерями
Бит/(Пиксели*Кадры) : 0.269
Размер потока : 590 Мбайт (82%)
Библиотека кодирования : XviD 1.2.1 (UTC 2008-12-04)
Аудио #1
Идентификатор : 1
Формат : AC-3
Формат/Информация : Audio Coding 3
Параметр Endianness формата : Big
Идентификатор кодека : 2000
Продолжительность : 44 м. 29 с.
Вид битрейта : Постоянный
Битрейт : 192 Кбит/сек
Каналы : 2 канала
Расположение каналов : Front: L R
Частота : 48,0 КГц
Частота кадров : 31,250 кадров/сек (1536 SPF)
Битовая глубина : 16 бит
Метод сжатия : С потерями
Размер потока : 61,1 Мбайт (9%)
Выравнивание : Разделение по промежуткам
Продолжительность промежутка : 42 мс. (1,00 видеокадр)
Время предзагрузки промежутка : 500 мс.
ServiceKind/String : Complete Main
Аудио #2
Идентификатор : 2
Формат : AC-3
Формат/Информация : Audio Coding 3
Параметр Endianness формата : Big
Идентификатор кодека : 2000
Продолжительность : 44 м. 29 с.
Вид битрейта : Постоянный
Битрейт : 192 Кбит/сек
Каналы : 2 канала
Расположение каналов : Front: L R
Частота : 48,0 КГц
Частота кадров : 31,250 кадров/сек (1536 SPF)
Битовая глубина : 16 бит
Метод сжатия : С потерями
Размер потока : 61,1 Мбайт (9%)
Выравнивание : Разделение по промежуткам
Продолжительность промежутка : 42 мс. (1,00 видеокадр)
Время предзагрузки промежутка : 500 мс.
ServiceKind/String : Complete Main
[opentorrent.pro].t3976.torrent 
Торрент: Зарегистрирован [ 2019-06-28 15:49 ] · B56362D6C33707B23E00EA8B3544A6268780EE92

Скачать .torrent

Скачать

15 KB

Статус: проверено
Скачан: 0 раз
Размер: 717 MB  ·  Тип торрента
terms.php
Профиль [ЛС]
Показать сообщения:    

Текущее время: 05-Авг 01:33

Часовой пояс: UTC ± 0



Вы не можете начинать темы
Вы не можете отвечать на сообщения
Вы не можете редактировать свои сообщения
Вы не можете удалять свои сообщения
Вы не можете голосовать в опросах
Вы не можете прикреплять файлы к сообщениям
Вы можете скачивать файлы