Статистика раздачи
Размер:  2,85 GB   |    Зарегистрирован:  1 год   |    Скачан:  0 раз
DL-List: Нет

Полного источника не было: Никогда

 
     
 
 

karlll ®

Пол:
Не указан
Стаж:
1 год 3 месяца
Сообщений:
196

Смывайся | Flushed Away«Из цивилизации - в канализацию»- Год выпуска: 2006
Страна: Великобритания, США | Aardman Animations, DreamWorks Animation
Жанр: Мультфильм, комедия, приключения, семейный
Продолжительность: 01:25:02
Перевод: Профессиональный (дублированный) | DVD R5 Rus
Перевод: Профессиональный (двухголосый закадровый) | П. Гланц и И. Королёва
Перевод: Профессиональный (дублированный) | DVD R5 Ukr
Субтитры: Русские, Украинские, Английские
Оригинальная аудиодорожка: Английский
Режиссер: Дэвид Бауэрс / David Bowers, Сэм Фелл / Sam Fell
Роли озвучивали: Хью Джекман, Кейт Уинслет, Иэн МакКеллен, Жан Рено, Билл Найи, Энди Серкис, Шэйн Ричи, Кэти Бёрк, Дэвид Суше, Мириам Маргулис-Описание:Родди — привилегированная крыса, живущая жизнью любимого домашнего животного в престижном пентхаусе. Однажды засорившаяся раковина «выплевывает» в квартиру канализационную крысу Сида, которому приходятся по душе роскошные апартаменты.
Чтобы избавиться от надоедливого гостя, Родди решает смыть его в унитаз, но житель канализации не такой простак, каким кажется, и в итоге в унитазе оказывается сам Родди. Попав в канализацию, ему предстоит привыкнуть к совершенно новой, незнакомой ему жизни…-
Третья совместная работа студий DreamWorks Animation и Aardman Animations. В отличие от предыдущих мультфильмов этого творческого союза, сделанных с помощью пластилиновой анимации, эта лента сделана целиком с помощью компьютерной анимации, однако в основу мультфильма вошла и пластилиновая анимация.-Доп. инфо.
Звуковые дорожки V_ad | hdreactor.-
IMDb: 6.60 (102 245)
Sample
релиз: -Качество: BDRip-AVC | Flushed Away 2006 1080p Blu-ray Remux AVC DTS-HD MA 5.1 - BluDragon
Формат: MKV
Видео: AVC 3130 kb/s 1120 x 604 (1.854) 23.976 fps
Аудио1: Русский AC3 5.1, 48 KHz, 384 kbps Профессиональный (дублированный) (DVD R5)
Аудио2: Русский AC3 5.1, 48 KHz, 448 kbps Профессиональный (двухголосый закадровый) (П. Гланц и И. Королёва )
Аудио3: Украинский AC3 5.1, 48 KHz, 384 kbps Профессиональный (дублированный) (DVD R5)
Аудио4: AC-3 448 kb/s 6 channels, 48.0 kHz Eng
Субтитры: Русские (форсированные, полные), Украинские, Английские (полные, полные (SDH)

Mediainfo |Log

Log

x264 [info]: frame I:1280 Avg QP:13.93 size:107954
x264 [info]: frame P:32642 Avg QP:15.47 size: 30703
x264 [info]: frame B:88411 Avg QP:18.31 size: 9678
x264 [info]: consecutive B-frames: 4.0% 7.7% 16.1% 28.5% 15.5% 19.0% 3.2% 2.4% 1.5% 0.9% 1.2%
x264 [info]: mb I I16..4: 5.0% 72.1% 22.9%
x264 [info]: mb P I16..4: 0.8% 12.1% 2.3% P16..4: 25.7% 29.7% 13.2% 3.2% 0.4% skip:12.5%
x264 [info]: mb B I16..4: 0.2% 1.8% 0.3% B16..8: 26.7% 18.2% 4.0% direct: 3.5% skip:45.3% L0:43.7% L1:43.3% BI:13.1%
x264 [info]: 8x8 transform intra:77.6% inter:48.5%
x264 [info]: direct mvs spatial:99.9% temporal:0.1%
x264 [info]: coded y,uvDC,uvAC intra: 90.3% 87.9% 74.6% inter: 16.6% 15.4% 7.5%
x264 [info]: i16 v,h,dc,p: 37% 15% 6% 41%
x264 [info]: i8 v,h,dc,ddl,ddr,vr,hd,vl,hu: 10% 12% 9% 9% 11% 11% 12% 12% 15%
x264 [info]: i4 v,h,dc,ddl,ddr,vr,hd,vl,hu: 10% 9% 6% 9% 15% 13% 14% 10% 13%
x264 [info]: i8c dc,h,v,p: 43% 27% 16% 14%
x264 [info]: Weighted P-Frames: Y:2.3% UV:1.7%
x264 [info]: ref P L0: 50.2% 6.8% 15.3% 6.5% 5.3% 4.1% 3.9% 2.2% 2.1% 1.6% 1.7% 0.1% 0.0%
x264 [info]: ref B L0: 69.6% 10.7% 6.2% 3.3% 2.6% 2.3% 2.4% 1.5% 1.1% 0.3%
x264 [info]: ref B L1: 94.2% 5.8%
x264 [info]: kb/s:3129.57
x264 [total]: encoded 122333 frames, 13.26 fps, 3129.57 kb/s, duration 2:33:48.29
Format : Matroska
Format version : Version 4
File size : 2.85 GiB
Duration : 1 h 25 min
Overall bit rate : 4 797 kb/s
Encoded date : UTC 2019-05-21 14:09:01
Writing application : mkvmerge v8.2.0 ('World of Adventure') 64bit
Writing library : libebml v1.3.1 + libmatroska v1.4.2
Video
ID : 1
Format : AVC
Format/Info : Advanced Video Codec
Format profile : High@L4.1
Format settings : CABAC / 11 Ref Frames
Format settings, CABAC : Yes
Format settings, RefFrames : 11 frames
Codec ID : V_MPEG4/ISO/AVC
Duration : 1 h 25 min
Bit rate : 3 130 kb/s
Width : 1 120 pixels
Height : 604 pixels
Display aspect ratio : 1.85:1
Frame rate mode : Constant
Frame rate : 23.976 (24000/1001) FPS
Color space : YUV
Chroma subsampling : 4:2:0
Bit depth : 8 bits
Scan type : Progressive
Bits/(Pixel*Frame) : 0.193
Stream size : 1.86 GiB (65%)
Title : Flushed Away (2006) [rutracker.org]
Writing library : x264 core 152 r2851kMod ba24899
Encoding settings : cabac=1 / ref=11 / deblock=1:-3:-2 / analyse=0x3:0x133 / me=umh / subme=11 / psy=1 / fade_compensate=0.00 / psy_rd=1.00:0.05 / mixed_ref=1 / me_range=48 / chroma_me=1 / trellis=2 / 8x8dct=1 / cqm=0 / deadzone=21,11 / fast_pskip=0 / chroma_qp_offset=-3 / threads=12 / lookahead_threads=3 / sliced_threads=0 / nr=0 / decimate=1 / interlaced=0 / bluray_compat=0 / constrained_intra=0 / bframes=10 / b_pyramid=2 / b_adapt=2 / b_bias=0 / direct=3 / weightb=1 / open_gop=0 / weightp=2 / keyint=250 / keyint_min=23 / scenecut=40 / intra_refresh=0 / rc_lookahead=60 / rc=crf / mbtree=0 / crf=16.8000 / qcomp=0.60 / qpmin=0 / qpmax=69 / qpstep=4 / vbv_maxrate=50000 / vbv_bufsize=62500 / crf_max=0.0 / nal_hrd=none / filler=0 / ip_ratio=1.40 / pb_ratio=1.30 / aq=3:0.90
Language : English
Default : Yes
Forced : No
Audio #1
ID : 2
Format : AC-3
Format/Info : Audio Coding 3
Commercial name : Dolby Digital
Codec ID : A_AC3
Duration : 1 h 25 min
Bit rate mode : Constant
Bit rate : 384 kb/s
Channel(s) : 6 channels
Channel layout : L R C LFE Ls Rs
Sampling rate : 48.0 kHz
Frame rate : 31.250 FPS (1536 SPF)
Bit depth : 16 bits
Compression mode : Lossy
Stream size : 234 MiB (8%)
Title : DUB R5
Language : Russian
Service kind : Complete Main
Default : Yes
Forced : No
Audio #2
ID : 3
Format : AC-3
Format/Info : Audio Coding 3
Commercial name : Dolby Digital
Codec ID : A_AC3
Duration : 1 h 25 min
Bit rate mode : Constant
Bit rate : 448 kb/s
Channel(s) : 6 channels
Channel layout : L R C LFE Ls Rs
Sampling rate : 48.0 kHz
Frame rate : 31.250 FPS (1536 SPF)
Bit depth : 16 bits
Compression mode : Lossy
Stream size : 272 MiB (9%)
Title : DVO Glanz i Koroleva
Language : Russian
Service kind : Complete Main
Default : No
Forced : No
Audio #3
ID : 4
Format : AC-3
Format/Info : Audio Coding 3
Commercial name : Dolby Digital
Codec ID : A_AC3
Duration : 1 h 25 min
Bit rate mode : Constant
Bit rate : 384 kb/s
Channel(s) : 6 channels
Channel layout : L R C LFE Ls Rs
Sampling rate : 48.0 kHz
Frame rate : 31.250 FPS (1536 SPF)
Bit depth : 16 bits
Compression mode : Lossy
Stream size : 234 MiB (8%)
Title : DUB R5
Language : Ukrainian
Service kind : Complete Main
Default : No
Forced : No
Audio #4
ID : 5
Format : AC-3
Format/Info : Audio Coding 3
Commercial name : Dolby Digital
Codec ID : A_AC3
Duration : 1 h 25 min
Bit rate mode : Constant
Bit rate : 448 kb/s
Channel(s) : 6 channels
Channel layout : L R C LFE Ls Rs
Sampling rate : 48.0 kHz
Frame rate : 31.250 FPS (1536 SPF)
Bit depth : 16 bits
Compression mode : Lossy
Stream size : 272 MiB (9%)
Title : Original
Language : English
Service kind : Complete Main
Default : No
Forced : No
Text #1
ID : 6
Format : UTF-8
Codec ID : S_TEXT/UTF8
Codec ID/Info : UTF-8 Plain Text
Duration : 1 h 23 min
Bit rate : 1 b/s
Count of elements : 13
Stream size : 715 Bytes (0%)
Title : Forced
Language : Russian
Default : Yes
Forced : No
Text #2
ID : 7
Format : UTF-8
Codec ID : S_TEXT/UTF8
Codec ID/Info : UTF-8 Plain Text
Duration : 1 h 15 min
Bit rate : 98 b/s
Count of elements : 1101
Stream size : 54.5 KiB (0%)
Title : Full
Language : Russian
Default : No
Forced : No
Text #3
ID : 8
Format : UTF-8
Codec ID : S_TEXT/UTF8
Codec ID/Info : UTF-8 Plain Text
Duration : 1 h 23 min
Bit rate : 82 b/s
Count of elements : 1101
Stream size : 50.5 KiB (0%)
Title : Full
Language : Ukrainian
Default : No
Forced : No
Text #4
ID : 9
Format : UTF-8
Codec ID : S_TEXT/UTF8
Codec ID/Info : UTF-8 Plain Text
Duration : 1 h 15 min
Bit rate : 59 b/s
Count of elements : 1096
Stream size : 33.0 KiB (0%)
Title : Full
Language : English
Default : No
Forced : No
Text #5
ID : 10
Format : UTF-8
Codec ID : S_TEXT/UTF8
Codec ID/Info : UTF-8 Plain Text
Duration : 1 h 23 min
Bit rate : 69 b/s
Count of elements : 1456
Stream size : 42.3 KiB (0%)
Title : SDH
Language : English
Default : No
Forced : No
Menu
00:00:00.000 : en:Dancing with Myself
00:04:16.047 : en:Sid From the Sewer
00:07:47.717 : en:Roddy Gets Flushed
00:13:46.325 : en:The Jammy Dodger
00:19:13.903 : en:The Toad
00:26:07.483 : en:It's A Deal
00:32:40.959 : en:Rita's Family
00:37:37.422 : en:Ice Cold Rita
00:43:08.336 : en:Getting Away
00:47:14.957 : en:Le Frog
00:50:15.763 : en:Goodnight Roddy
00:53:04.973 : en:Goodbye Jammy
00:59:18.263 : en:Mr. Lonely
01:04:23.151 : en:Half Time
01:14:42.603 : en:Rollin' on a River
01:16:58.239 : en:End Credits

Скриншоты




[opentorrent.pro].t3977.torrent 
Торрент: Зарегистрирован [ 2019-06-28 15:49 ] · 57047779E10B381D24D8DA734BD69E1E7F914F93

Скачать .torrent

Скачать

15 KB

Статус: проверено
Скачан: 0 раз
Размер: 2,85 GB  ·  Тип торрента
terms.php
Профиль [ЛС]
Показать сообщения:    

Текущее время: 07-Июл 05:32

Часовой пояс: UTC ± 0



Вы не можете начинать темы
Вы не можете отвечать на сообщения
Вы не можете редактировать свои сообщения
Вы не можете удалять свои сообщения
Вы не можете голосовать в опросах
Вы не можете прикреплять файлы к сообщениям
Вы можете скачивать файлы