Статистика раздачи
Размер:  1,44 GB   |    Зарегистрирован:  1 год 1 месяц   |    Скачан:  0 раз
DL-List: Нет

Полного источника не было: Никогда

 
     
 
 

karlll ®

Пол:
Не указан
Стаж:
1 год 4 месяца
Сообщений:
196

Волшебное путешествие
Die Abenteuer von Pico und Columbus / The Magic Voyage

Страна: Германия, Великобритания
Жанр: приключения
Продолжительность: 01:16:39
Год выпуска: 1992
Перевод 1: Авторский (одноголосый закадровый) Вартана Дохалова
Перевод 2: Авторский (одноголосый закадровый) Сергея Визгунова
Оригинальная аудиодорожка: английский
Русские субтитры: нет
Режиссёр: Михаэль Шеманн (Майкл Шуманн) /Michael Schoemann/
Роли озвучивали: Дом Де Луиз /Dom De Luise/, Кори Фелдман /Corey Feldman/, Айрин Кара /Irene Cara/, Дэн Хэггерти /Dan Haggerty/, Сэмэнта Эггар /Samantha Eggar/, Микки Руни /Mickey Rooney/, Бретт Бэкстер Кларк /Brett Baxter Clark/, Тед Прайор /Ted Prior/
Рецензия Михаила Иванова: Мультипликационный полнометражный рисованый фильм, пародирующий и весьма забавно путешествие Кристофора Колумба с целью открытия Америки. Большую часть занимает история любви древесного червяка к светлячку. Рекомендую для семейного просмотра.
Доп. информация: исходник от noon; Дохалова оцифровал и подготовил karlll
~СЭМПЛ~
Качество: DVDRip-AVC
Формат: MKV
Видео: MPEG4 Video (H264) 688x528 25fps 2056Kbps
Аудио 1: Dolby AC3 48KHz 2Ch 192Kbps - Д
Аудио 2: Dolby AC3 48KHz 2Ch 192Kbps - В
Аудио 3: Dolby AC3 48KHz 2Ch 256Kbps - А
Субтитры: "отсутствуют"

Подробные технические данные

Format : Matroska
Format version : Version 2
File size : 1.44 GiB
Duration : 1 h 16 min
Overall bit rate : 2 698 kb/s
Movie name : DIE ABENTEUER VON PICO UND COLUMBUS_THE MAGIC VOYAGE_1992_DVDRIP_ДОХАЛОВ_ВИЗГУНОВ_ENG_KBC
Encoded date : UTC 2019-05-29 15:05:50
Writing application : mkvmerge v6.9.1 ('Blue Panther') 32bit built on Apr 18 2014 18:15:44
Writing library : libebml v1.3.0 + libmatroska v1.4.1
Video
ID : 1
Format : AVC
Format/Info : Advanced Video Codec
Format profile : High@L3.1
Format settings : CABAC / 7 Ref Frames
Format settings, CABAC : Yes
Format settings, RefFrames : 7 frames
Codec ID : V_MPEG4/ISO/AVC
Duration : 1 h 16 min
Bit rate : 2 056 kb/s
Width : 688 pixels
Height : 528 pixels
Display aspect ratio : 4:3
Frame rate mode : Constant
Frame rate : 25.000 FPS
Color space : YUV
Chroma subsampling : 4:2:0
Bit depth : 8 bits
Scan type : Progressive
Bits/(Pixel*Frame) : 0.226
Stream size : 1.07 GiB (74%)
Title : Die Abenteuer von Pico und Columbus / The Magic Voyage_1992
Writing library : x264 core 152 r2851kMod ba24899
Encoding settings : cabac=1 / ref=7 / deblock=1:-1:-1 / analyse=0x3:0x113 / me=umh / subme=9 / psy=1 / fade_compensate=0.00 / psy_rd=1.00:0.20 / mixed_ref=1 / me_range=24 / chroma_me=1 / trellis=2 / 8x8dct=1 / cqm=0 / deadzone=21,11 / fast_pskip=0 / chroma_qp_offset=-3 / threads=6 / lookahead_threads=1 / sliced_threads=0 / nr=0 / decimate=0 / interlaced=0 / bluray_compat=0 / constrained_intra=0 / bframes=7 / b_pyramid=2 / b_adapt=2 / b_bias=0 / direct=3 / weightb=1 / open_gop=0 / weightp=2 / keyint=250 / keyint_min=25 / scenecut=40 / intra_refresh=0 / rc_lookahead=50 / rc=2pass / mbtree=1 / bitrate=2056 / ratetol=1.0 / qcomp=0.60 / qpmin=0 / qpmax=69 / qpstep=4 / cplxblur=20.0 / qblur=0.5 / vbv_maxrate=14000 / vbv_bufsize=14000 / nal_hrd=none / filler=0 / ip_ratio=1.40 / aq=1:1.00
Language : English
Default : Yes
Forced : No
Audio #1
ID : 2
Format : AC-3
Format/Info : Audio Coding 3
Commercial name : Dolby Digital
Codec ID : A_AC3
Duration : 1 h 16 min
Bit rate mode : Constant
Bit rate : 192 kb/s
Channel(s) : 2 channels
Channel layout : L R
Sampling rate : 48.0 kHz
Frame rate : 31.250 FPS (1536 SPF)
Bit depth : 16 bits
Compression mode : Lossy
Stream size : 105 MiB (7%)
Title : Дохалов
Language : Russian
Service kind : Complete Main
Default : Yes
Forced : No
Audio #2
ID : 3
Format : AC-3
Format/Info : Audio Coding 3
Commercial name : Dolby Digital
Codec ID : A_AC3
Duration : 1 h 16 min
Bit rate mode : Constant
Bit rate : 192 kb/s
Channel(s) : 2 channels
Channel layout : L R
Sampling rate : 48.0 kHz
Frame rate : 31.250 FPS (1536 SPF)
Bit depth : 16 bits
Compression mode : Lossy
Stream size : 105 MiB (7%)
Title : Визгунов
Language : Russian
Service kind : Complete Main
Default : No
Forced : No
Audio #3
ID : 4
Format : AC-3
Format/Info : Audio Coding 3
Commercial name : Dolby Digital
Codec ID : A_AC3
Duration : 1 h 16 min
Bit rate mode : Constant
Bit rate : 256 kb/s
Channel(s) : 2 channels
Channel layout : L R
Sampling rate : 48.0 kHz
Frame rate : 31.250 FPS (1536 SPF)
Bit depth : 16 bits
Compression mode : Lossy
Stream size : 140 MiB (9%)
Title : English
Language : English
Service kind : Complete Main
Default : No
Forced : No

Скриншоты

[opentorrent.pro].t3979.torrent 
Торрент: Зарегистрирован [ 2019-06-28 15:49 ] · B633B355B6D34DE1C35CC7590BE364E56E421811

Скачать .torrent

Скачать

15 KB

Статус: проверено
Скачан: 0 раз
Размер: 1,44 GB  ·  Тип торрента
terms.php
Профиль [ЛС]
Показать сообщения:    

Текущее время: 08-Авг 17:08

Часовой пояс: UTC ± 0



Вы не можете начинать темы
Вы не можете отвечать на сообщения
Вы не можете редактировать свои сообщения
Вы не можете удалять свои сообщения
Вы не можете голосовать в опросах
Вы не можете прикреплять файлы к сообщениям
Вы можете скачивать файлы