Статистика раздачи
Размер:  52 MB   |    Зарегистрирован:  1 год 1 месяц   |    Скачан:  0 раз
DL-List: Нет

Полного источника не было: Никогда

 
     
 
 

Гость ®

Пол:
Не указан

Аль-Фатиха. Мусульманская молитва
Страна: Россия
Жанр: мультфильм
Продолжительность: 00:06:00
Год выпуска: 2001
Перевод: субтитры
Русские субтитры: есть
Режиссёр: Станислав Соколов
Описание: Ночью в пустыне, спасаясь от волков на вершине скалы, арабский мальчик читает 1-ю и 94-ю суру священного Корана.
Качество: WEBRip
Формат: AVI
Видео: 999 kbps, 576х432 (4:3), 25.000 fps, MPEG-4 Visual (XviD)
Аудио: 192 kbps, 44.1 kHz, 2 channels, MPEG Audio (MP3)
Субтитры: hardsub

Подробные технические данные

General
Complete name : Аль-Фатиха. Мусульманская молитва.avi
Format : AVI
Format/Info : Audio Video Interleave
File size : 51.7 MiB
Duration : 6mn 0s
Overall bit rate : 1 204 Kbps
Writing application : Lavf57.41.100
Writing library : VirtualDub build 35491/release
Video
ID : 0
Format : MPEG-4 Visual
Format profile : Advanced Simple@L5
Format settings, BVOP : 2
Format settings, QPel : No
Format settings, GMC : No warppoints
Format settings, Matrix : Default (H.263)
Codec ID : XVID
Codec ID/Hint : XviD
Duration : 6mn 0s
Bit rate : 999 Kbps
Width : 576 pixels
Height : 432 pixels
Display aspect ratio : 4:3
Frame rate : 25.000 fps
Color space : YUV
Chroma subsampling : 4:2:0
Bit depth : 8 bits
Scan type : Progressive
Compression mode : Lossy
Bits/(Pixel*Frame) : 0.161
Stream size : 42.9 MiB (83%)
Writing library : XviD 73
Audio
ID : 1
Format : MPEG Audio
Format version : Version 1
Format profile : Layer 3
Mode : Joint stereo
Mode extension : MS Stereo
Codec ID : 55
Codec ID/Hint : MP3
Duration : 6mn 0s
Bit rate mode : Constant
Bit rate : 192 Kbps
Channel(s) : 2 channels
Sampling rate : 44.1 KHz
Compression mode : Lossy
Stream size : 8.25 MiB (16%)
Alignment : Aligned on interleaves
Interleave, duration : 26 ms (0.65 video frame)
Interleave, preload duration : 522 ms
Writing library : LAME3.99.5

Скриншоты

[opentorrent.pro].t3980.torrent 
Торрент: Зарегистрирован [ 2019-06-28 15:49 ] · 6EA09DA5484FBECDEDA56C49F79DEE21FD993080

Скачать .torrent

Скачать

17 KB

Статус: проверено
Скачан: 0 раз
Размер: 52 MB  ·  Тип торрента
terms.php
Показать сообщения:    

Текущее время: 08-Авг 17:06

Часовой пояс: UTC ± 0



Вы не можете начинать темы
Вы не можете отвечать на сообщения
Вы не можете редактировать свои сообщения
Вы не можете удалять свои сообщения
Вы не можете голосовать в опросах
Вы не можете прикреплять файлы к сообщениям
Вы можете скачивать файлы