Статистика раздачи
Размер:  37 MB   |    Зарегистрирован:  1 год 1 месяц   |    Скачан:  0 раз
DL-List: Нет

Полного источника не было: Никогда

 
     
 
 

Гость ®

Пол:
Не указан

Ёжкин кот! Сахарок
Страна: Россия
Жанр: мультфильм
Продолжительность: 00:03:39
Год выпуска: 2016
Режиссёр: Алексей Почивалов
Описание: Пилотный эпизод неосуществлённого сериала "Ёжкин кот!"
К бабке Ёжке на лето приехал из города внучек. Бабка приготовила угощение, но внуку оно пришлось не по вкусу: нет сахара...
Качество: WEBRip-AVC
Формат: MKV
Видео: 1204 kbps, 1280х720 (16:9), 25.000 fps, AVC (High@L3.1)
Аудио: 192 kbps, 48.0 kHz, 16 bits, 2 channels, AC-3
Субтитры: отсутствуют

Подробные технические данные

General
Unique ID : 207569699693572795671363949295614201894 (0x9C28785325C98BC5B10625ED5F529026)
Complete name : Ёжкин кот! Сахарок (2016).mkv
Format : Matroska
Format version : Version 4 / Version 2
File size : 37.3 MiB
Duration : 3mn 39s
Overall bit rate : 1 424 Kbps
Encoded date : UTC 2019-05-19 12:13:16
Writing application : mkvmerge v6.6.0 ('The Edge Of The In Between') built on Dec 1 2013 17:55:00
Writing library : libebml v1.3.0 + libmatroska v1.4.1
Video
ID : 1
Format : AVC
Format/Info : Advanced Video Codec
Format profile : High@L3.1
Format settings, CABAC : Yes
Format settings, ReFrames : 1 frame
Codec ID : V_MPEG4/ISO/AVC
Duration : 3mn 39s
Bit rate : 1 204 Kbps
Width : 1 280 pixels
Height : 720 pixels
Display aspect ratio : 16:9
Frame rate mode : Constant
Frame rate : 25.000 fps
Color space : YUV
Chroma subsampling : 4:2:0
Bit depth : 8 bits
Scan type : Progressive
Bits/(Pixel*Frame) : 0.052
Stream size : 31.5 MiB (85%)
Default : Yes
Forced : No
Audio
ID : 2
Format : AC-3
Format/Info : Audio Coding 3
Mode extension : CM (complete main)
Format settings, Endianness : Big
Codec ID : A_AC3
Duration : 3mn 39s
Bit rate mode : Constant
Bit rate : 192 Kbps
Channel(s) : 2 channels
Channel positions : Front: L R
Sampling rate : 48.0 KHz
Bit depth : 16 bits
Compression mode : Lossy
Stream size : 5.03 MiB (13%)
Default : Yes
Forced : No

Скриншоты

[opentorrent.pro].t3981.torrent 
Торрент: Зарегистрирован [ 2019-06-28 15:49 ] · FB7A9272F8DD1BE542DE791C6938EE6A88ED49A7

Скачать .torrent

Скачать

12 KB

Статус: проверено
Скачан: 0 раз
Размер: 37 MB  ·  Тип торрента
terms.php
Показать сообщения:    

Текущее время: 08-Авг 18:26

Часовой пояс: UTC ± 0



Вы не можете начинать темы
Вы не можете отвечать на сообщения
Вы не можете редактировать свои сообщения
Вы не можете удалять свои сообщения
Вы не можете голосовать в опросах
Вы не можете прикреплять файлы к сообщениям
Вы можете скачивать файлы