Статистика раздачи
Размер:  129 MB   |    Зарегистрирован:  1 год 1 месяц   |    Скачан:  0 раз
DL-List: Нет

Полного источника не было: Никогда

 
     
 
 

Гость ®

Пол:
Не указан

Переоценка ценностей
Страна: Беларусь
Жанр: мультфильм
Продолжительность: 00:10:01
Год выпуска: 2001
Русские субтитры: нет
Режиссёр: Татьяна Житковская
Описание: Младший сын Петька во время обеда затеял играть со словами, и рассердил своего строгого отца...
Качество: WEBRip
Формат: AVI
Видео: 1595 kbps, 704х528 (4:3), 25.000 fps, MPEG-4 Visual (XviD)
Аудио: 192 kbps, 44.1 kHz, 2 channels, MPEG Audio (MP3)
Субтитры: отсутствуют

Подробные технические данные

General
Complete name : Переоценка ценностей (2001).avi
Format : AVI
Format/Info : Audio Video Interleave
File size : 129 MiB
Duration : 10mn 1s
Overall bit rate : 1 799 Kbps
Writing application : MEncoder SVN-r30881(20100311-gcc4.3.3)
Writing library : MPlayer
Video
ID : 0
Format : MPEG-4 Visual
Format profile : Advanced Simple@L5
Format settings, BVOP : 2
Format settings, QPel : No
Format settings, GMC : No warppoints
Format settings, Matrix : Default (H.263)
Codec ID : XVID
Codec ID/Hint : XviD
Duration : 10mn 1s
Bit rate : 1 595 Kbps
Width : 704 pixels
Height : 528 pixels
Display aspect ratio : 4:3
Frame rate : 25.000 fps
Color space : YUV
Chroma subsampling : 4:2:0
Bit depth : 8 bits
Scan type : Progressive
Compression mode : Lossy
Bits/(Pixel*Frame) : 0.172
Stream size : 114 MiB (89%)
Writing library : XviD 1.2.1 (UTC 2008-12-04)
Audio
ID : 1
Format : MPEG Audio
Format version : Version 1
Format profile : Layer 3
Mode : Joint stereo
Mode extension : MS Stereo
Codec ID : 55
Codec ID/Hint : MP3
Duration : 10mn 1s
Bit rate mode : Constant
Bit rate : 192 Kbps
Channel(s) : 2 channels
Sampling rate : 44.1 KHz
Compression mode : Lossy
Delay relative to video : 40ms
Stream size : 13.8 MiB (11%)
Alignment : Aligned on interleaves
Interleave, duration : 26 ms (0.65 video frame)
Interleave, preload duration : 522 ms
Writing library : LAME3.98

Скриншоты

[opentorrent.pro].t3982.torrent 
Торрент: Зарегистрирован [ 2019-06-28 15:49 ] · 49BEC0E062EFA2754FC526672DC4369B3BEC78BA

Скачать .torrent

Скачать

11 KB

Статус: проверено
Скачан: 0 раз
Размер: 129 MB  ·  Тип торрента
terms.php
Показать сообщения:    

Текущее время: 08-Авг 18:16

Часовой пояс: UTC ± 0



Вы не можете начинать темы
Вы не можете отвечать на сообщения
Вы не можете редактировать свои сообщения
Вы не можете удалять свои сообщения
Вы не можете голосовать в опросах
Вы не можете прикреплять файлы к сообщениям
Вы можете скачивать файлы