Статистика раздачи
Размер:  3,22 GB   |    Зарегистрирован:  1 год   |    Скачан:  0 раз
DL-List: Нет

Полного источника не было: Никогда

 
     
 
 

karlll ®

Пол:
Не указан
Стаж:
1 год 4 месяца
Сообщений:
196

Уоллес и Громит: Проклятие кролика-оборотня
Wallace & Gromit in The Curse of the Were-Rabbit| The Curse of the Were-Rabbit
«Что-то злобное тут скачет»- Год выпуска: 2005
Страна: Великобритания, США | Aardman Animations, DreamWorks Animation
Жанр: мультфильм
Продолжительность: 01:24:59
Перевод: Профессиональный (дублированный)
Перевод 2: Профессиональный (многоголосый закадровый)
Субтитры: Rus, Eng-Режиссер: Ник Парк / Nick Park, Стив Бокс / Steve Box
В ролях: Питер Саллис / Peter Sallis, Рэйф Файнс / Ralph Fiennes, Хелена Бонем Картер / Helena Bonham Carter, Питер Кэй / Peter Kay, Николас Смит / Nicholas Smith, Лиз Смит / Liz Smith, Джон Томсон / John Thomson, Марк Гатисс / Mark Gatiss-Описание:Ежегодный конкурс гигантских овощей приближается, и «овощемания» охватывает всех соседей Уоллеса и Громита. Два предприимчивых друга решили заработать денег на борьбе с грызунами, воспользовавшись своим изобретением «Анти-Песто». Но внезапно огромное таинственное животное начало терроризировать округу, уничтожая овощи, которые могли претендовать на главный приз конкурса. В отчаянье, пытаясь спасти мероприятие, его организатор леди Тоттингтон обещает царские почести тому, кто поймает зверя и спасет праздник.-
«Уоллес и Громит: Проклятие кролика-оборотня» (англ. Wallace & Gromit: The Curse of the Were-Rabbit) — анимационный комедийный фильм 2005 года о британском изобретателе Уоллесе и его псе Громите, созданный Aardman Animations в партнерстве с DreamWorks Animation
Занимает 2 место в списке самых кассовых кукольных мультфильмов.


Оскар, 2006 год
Победитель (1):
Лучший анимационный фильм
---------------------------------
Британская академия, 2006 год
Победитель (1):
Премия имени Александра Корды за самый выдающийся британский фильм года
-
IMDb: 7.50 (115 487)
Sample
релиз: -Качество: BDRip-AVC | The Curse of the Were-Rabbit 2005 1080p Blu-ray Remux AVC DTS-HD MA 5.1 - maclanes
Формат: MKV
Видео: AVC 4154 kb/s 1072 x 580 (1.848) 23.976 fps
Аудио #1: (RUS) 48 kHz, AC3 Dolby Digital, 3/2 (L,C,R,l,r) + LFE ch, ~384.00 kbps DUB
Аудио #2: (RUS) 48 kHz, AC3 Dolby Digital, 3/2 (L,C,R,l,r) + LFE ch, ~448.00 kbps MVO
Аудио #3: (ENG) 48 kHz, AC3 Dolby Digital, 3/2 (L,C,R,l,r) + LFE ch, ~448.00 kbps

MI | Log

Log

x264 [info]: frame I:1317 Avg QP:15.90 size:103849
x264 [info]: frame P:28523 Avg QP:17.62 size: 40444
x264 [info]: frame B:92431 Avg QP:19.36 size: 14688
x264 [info]: consecutive B-frames: 3.2% 2.5% 11.2% 22.8% 24.9% 26.3% 4.4% 1.7% 1.1% 0.9% 0.9%
x264 [info]: mb I I16..4: 6.6% 78.5% 14.9%
x264 [info]: mb P I16..4: 0.6% 17.5% 2.1% P16..4: 25.8% 30.9% 13.9% 2.1% 0.2% skip: 6.9%
x264 [info]: mb B I16..4: 0.1% 2.0% 0.3% B16..8: 31.0% 20.9% 4.0% direct: 6.4% skip:35.3% L0:48.9% L1:39.3% BI:11.8%
x264 [info]: 8x8 transform intra:85.0% inter:56.5%
x264 [info]: direct mvs spatial:99.9% temporal:0.1%
x264 [info]: coded y,uvDC,uvAC intra: 92.6% 95.7% 89.9% inter: 29.9% 35.2% 20.1%
x264 [info]: i16 v,h,dc,p: 48% 8% 8% 36%
x264 [info]: i8 v,h,dc,ddl,ddr,vr,hd,vl,hu: 10% 8% 10% 9% 13% 12% 13% 11% 14%
x264 [info]: i4 v,h,dc,ddl,ddr,vr,hd,vl,hu: 29% 8% 6% 7% 11% 12% 10% 8% 10%
x264 [info]: i8c dc,h,v,p: 54% 15% 13% 17%
x264 [info]: Weighted P-Frames: Y:5.8% UV:3.0%
x264 [info]: ref P L0: 43.8% 10.3% 18.9% 6.2% 6.0% 3.8% 3.9% 1.9% 2.0% 1.5% 1.7% 0.1% 0.0%
x264 [info]: ref B L0: 64.1% 14.1% 7.4% 4.0% 3.0% 2.5% 2.1% 1.5% 0.9% 0.4%
x264 [info]: ref B L1: 93.2% 6.8%
x264 [info]: kb/s:4153.91
x264 [total]: encoded 122271 frames, 12.10 fps, 4153.91 kb/s
Format : Matroska
Format version : Version 4
File size : 3.22 GiB
Duration : 1 h 24 min
Overall bit rate : 5 432 kb/s
Encoded date : UTC 2019-06-04 08:30:24
Writing application : mkvmerge v8.2.0 ('World of Adventure') 64bit
Writing library : libebml v1.3.1 + libmatroska v1.4.2
Video
ID : 1
Format : AVC
Format/Info : Advanced Video Codec
Format profile : High@L4.1
Format settings : CABAC / 11 Ref Frames
Format settings, CABAC : Yes
Format settings, Reference frames : 11 frames
Codec ID : V_MPEG4/ISO/AVC
Duration : 1 h 24 min
Bit rate : 4 154 kb/s
Width : 1 072 pixels
Height : 580 pixels
Display aspect ratio : 1.85:1
Frame rate mode : Constant
Frame rate : 23.976 (24000/1001) FPS
Color space : YUV
Chroma subsampling : 4:2:0
Bit depth : 8 bits
Scan type : Progressive
Bits/(Pixel*Frame) : 0.279
Stream size : 2.47 GiB (76%)
Title : The Curse of the Were-Rabbit (2005) [rutracker.org]
Writing library : x264 core 157 r2969 d4099dd
Encoding settings : cabac=1 / ref=11 / deblock=1:-3:-2 / analyse=0x3:0x133 / me=umh / subme=11 / psy=1 / psy_rd=1.00:0.05 / mixed_ref=1 / me_range=48 / chroma_me=1 / trellis=2 / 8x8dct=1 / cqm=0 / deadzone=21,11 / fast_pskip=0 / chroma_qp_offset=-3 / threads=12 / lookahead_threads=3 / sliced_threads=0 / nr=0 / decimate=1 / interlaced=0 / bluray_compat=0 / constrained_intra=0 / bframes=10 / b_pyramid=2 / b_adapt=2 / b_bias=0 / direct=3 / weightb=1 / open_gop=0 / weightp=2 / keyint=250 / keyint_min=23 / scenecut=40 / intra_refresh=0 / rc_lookahead=60 / rc=crf / mbtree=0 / crf=17.8 / qcomp=0.60 / qpmin=0 / qpmax=69 / qpstep=4 / vbv_maxrate=50000 / vbv_bufsize=62500 / crf_max=0.0 / nal_hrd=none / filler=0 / ip_ratio=1.40 / pb_ratio=1.30 / aq=3:0.90
Language : English
Default : Yes
Forced : No
Audio #1
ID : 2
Format : AC-3
Format/Info : Audio Coding 3
Commercial name : Dolby Digital
Codec ID : A_AC3
Duration : 1 h 24 min
Bit rate mode : Constant
Bit rate : 384 kb/s
Channel(s) : 6 channels
Channel layout : L R C LFE Ls Rs
Sampling rate : 48.0 kHz
Frame rate : 31.250 FPS (1536 SPF)
Bit depth : 16 bits
Compression mode : Lossy
Stream size : 232 MiB (7%)
Title : DUB
Language : Russian
Service kind : Complete Main
Default : Yes
Forced : No
Audio #2
ID : 3
Format : AC-3
Format/Info : Audio Coding 3
Commercial name : Dolby Digital
Codec ID : A_AC3
Duration : 1 h 24 min
Bit rate mode : Constant
Bit rate : 448 kb/s
Channel(s) : 6 channels
Channel layout : L R C LFE Ls Rs
Sampling rate : 48.0 kHz
Frame rate : 31.250 FPS (1536 SPF)
Bit depth : 16 bits
Compression mode : Lossy
Stream size : 271 MiB (8%)
Title : MVO
Language : Russian
Service kind : Complete Main
Default : No
Forced : No
Audio #3
ID : 4
Format : AC-3
Format/Info : Audio Coding 3
Commercial name : Dolby Digital
Codec ID : A_AC3
Duration : 1 h 24 min
Bit rate mode : Constant
Bit rate : 448 kb/s
Channel(s) : 6 channels
Channel layout : L R C LFE Ls Rs
Sampling rate : 48.0 kHz
Frame rate : 31.250 FPS (1536 SPF)
Bit depth : 16 bits
Compression mode : Lossy
Stream size : 272 MiB (8%)
Title : Original
Language : English
Service kind : Complete Main
Default : No
Forced : No
Text #1
ID : 5
Format : UTF-8
Codec ID : S_TEXT/UTF8
Codec ID/Info : UTF-8 Plain Text
Duration : 1 h 23 min
Bit rate : 66 b/s
Count of elements : 844
Stream size : 40.9 KiB (0%)
Title : Full
Language : Russian
Default : No
Forced : No
Text #2
ID : 6
Format : UTF-8
Codec ID : S_TEXT/UTF8
Codec ID/Info : UTF-8 Plain Text
Duration : 1 h 13 min
Bit rate : 40 b/s
Count of elements : 740
Stream size : 21.6 KiB (0%)
Title : Full
Language : English
Default : No
Forced : No
Menu
00:00:00.000 : en:00:00:00.000
00:06:47.073 : en:00:06:47.073
00:11:35.653 : en:00:11:35.653
00:18:05.459 : en:00:18:05.459
00:21:39.715 : en:00:21:39.715
00:25:48.630 : en:00:25:48.630
00:30:31.079 : en:00:30:31.079
00:35:26.875 : en:00:35:26.875
00:39:55.476 : en:00:39:55.476
00:43:28.022 : en:00:43:28.022
00:49:46.483 : en:00:49:46.483
00:53:05.557 : en:00:53:05.557
00:58:08.443 : en:00:58:08.443
01:01:18.425 : en:01:01:18.425
01:04:14.309 : en:01:04:14.309
01:08:40.074 : en:01:08:40.074
01:14:51.278 : en:01:14:51.278
01:18:58.567 : en:01:18:58.567

Скриншоты



[opentorrent.pro].t3983.torrent 
Торрент: Зарегистрирован [ 2019-06-28 15:49 ] · 93F0D985DBDB22C429891C22A450F53581FD4A6A

Скачать .torrent

Скачать

17 KB

Статус: проверено
Скачан: 0 раз
Размер: 3,22 GB  ·  Тип торрента
terms.php
Профиль [ЛС]
Показать сообщения:    

Текущее время: 13-Июл 12:01

Часовой пояс: UTC ± 0



Вы не можете начинать темы
Вы не можете отвечать на сообщения
Вы не можете редактировать свои сообщения
Вы не можете удалять свои сообщения
Вы не можете голосовать в опросах
Вы не можете прикреплять файлы к сообщениям
Вы можете скачивать файлы