Статистика раздачи
Размер:  105 MB   |    Зарегистрирован:  1 год   |    Скачан:  0 раз
DL-List: Нет

Полного источника не было: Никогда

 
     
 
 

Гость ®

Пол:
Не указан

Смешные желания
Страна: Россия
Жанр: мультфильм, сказка
Продолжительность: 00:07:21
Год выпуска: 2015
Русские субтитры: нет
Режиссёр: Екатерина Савина
Описание: По сказке Шарля Перро.
Дровосек получает от Зевса право на исполнение трёх любых желаний. Радостный дровосек отправляется домой, где его поджидает сварливая жена...
Доп. информация: Специальный приз от "Литературной газеты" за лучшую экранизацию - Фестиваль анимации в Суздале (2015)
Качество: WEBRip-AVC
Формат: MP4
Видео: 1801 kbps, 1280х720 (16:9), 25.000 fps, AVC (High@L3.2)
Аудио: 192 kbps, 44.1 kHz, 2 channels, AAC (LC)
Субтитры: отсутствуют

Подробные технические данные

General
Complete name : Смешные желания (2015).mp4
Format : MPEG-4
Format profile : Base Media / Version 2
Codec ID : mp42
File size : 105 MiB
Duration : 7mn 21s
Overall bit rate mode : Variable
Overall bit rate : 1 996 Kbps
Encoded date : UTC 2018-03-13 03:48:45
Tagged date : UTC 2018-03-13 03:48:45
gsst : 0
gstd : 441061
Video
ID : 1
Format : AVC
Format/Info : Advanced Video Codec
Format profile : High@L3.1
Format settings, CABAC : Yes
Format settings, ReFrames : 1 frame
Codec ID : avc1
Codec ID/Info : Advanced Video Coding
Duration : 7mn 21s
Bit rate : 1 801 Kbps
Maximum bit rate : 7 409 Kbps
Width : 1 280 pixels
Height : 720 pixels
Display aspect ratio : 16:9
Frame rate mode : Constant
Frame rate : 25.000 fps
Color space : YUV
Chroma subsampling : 4:2:0
Bit depth : 8 bits
Scan type : Progressive
Bits/(Pixel*Frame) : 0.078
Stream size : 94.7 MiB (90%)
Tagged date : UTC 2018-03-13 03:48:51
Color primaries : BT.709
Transfer characteristics : BT.709
Matrix coefficients : BT.709
Audio
ID : 2
Format : AAC
Format/Info : Advanced Audio Codec
Format profile : LC
Codec ID : 40
Duration : 7mn 21s
Bit rate mode : Variable
Bit rate : 192 Kbps
Maximum bit rate : 201 Kbps
Channel(s) : 2 channels
Channel positions : Front: L R
Sampling rate : 44.1 KHz
Compression mode : Lossy
Stream size : 10.1 MiB (10%)
Title : IsoMedia File Produced by Google, 5-11-2011
Language : English
Encoded date : UTC 2018-03-13 03:48:49
Tagged date : UTC 2018-03-13 03:48:51

Скриншоты

[opentorrent.pro].t3984.torrent 
Торрент: Зарегистрирован [ 2019-06-28 15:49 ] · 49788744C7D0478C5FA17E6A3BADB82A8D6E4E2B

Скачать .torrent

Скачать

17 KB

Статус: проверено
Скачан: 0 раз
Размер: 105 MB  ·  Тип торрента
terms.php
Показать сообщения:    

Текущее время: 07-Июл 06:17

Часовой пояс: UTC ± 0



Вы не можете начинать темы
Вы не можете отвечать на сообщения
Вы не можете редактировать свои сообщения
Вы не можете удалять свои сообщения
Вы не можете голосовать в опросах
Вы не можете прикреплять файлы к сообщениям
Вы можете скачивать файлы