Статистика раздачи
Размер:  347 MB   |    Зарегистрирован:  1 год   |    Скачан:  0 раз
DL-List: Нет

Полного источника не было: Никогда

 
     
 
 

Гость ®

Пол:
Не указан

Изобретатели (пять выпусков)
Страна: Россия
Жанр: мультфильмы
Режиссёр: Константин Голубков
Роли озвучивали: Евгений Стычкин, Александр Пожаров, Алексей Колган, Александр Малов
Композитор: Олег Костров
Качество видео: WEBRip-AVC
Формат видео: MKV
Субтитры: отсутствуют
Описание: Серия мультфильмов про талантливого лётчика-изобретателя Улётова, его умного пса Штопора, его менее талантливого коллегу профессора Узоркина и их оппонента немецкого изобретателя барона Флюга.
Информация по каждому выпуску:
Переместитель
Год выпуска: 2009
Продолжительность: 00:14:33
Видео: 684 kbps, 640х480 (4:3), 25.000 fps, AVC (High@L3.0)
Аудио: 192 kbps, 48.0 kHz, 16 bits, 2 channels, AC-3

MediaInfo

General
Unique ID : 250898151156923814799134811239449540542 (0xBCC139EA3D265ECDBC3DBDBD93FAB7BE)
Complete name : D: Изобретатели. Выпуск 1. Переместитель.mkv
Format : Matroska
Format version : Version 4 / Version 2
File size : 93.0 MiB
Duration : 14mn 33s
Overall bit rate mode : Variable
Overall bit rate : 894 Kbps
Encoded date : UTC 2019-05-12 05:32:54
Writing application : mkvmerge v6.6.0 ('The Edge Of The In Between') built on Dec 1 2013 17:55:00
Writing library : libebml v1.3.0 + libmatroska v1.4.1
Video
ID : 1
Format : AVC
Format/Info : Advanced Video Codec
Format profile : Main@L3.0
Format settings, CABAC : Yes
Format settings, ReFrames : 3 frames
Codec ID : V_MPEG4/ISO/AVC
Duration : 14mn 33s
Bit rate mode : Variable
Bit rate : 684 Kbps
Maximum bit rate : 40.0 Mbps
Width : 640 pixels
Height : 480 pixels
Display aspect ratio : 4:3
Frame rate mode : Constant
Frame rate : 25.000 fps
Color space : YUV
Chroma subsampling : 4:2:0
Bit depth : 8 bits
Scan type : Progressive
Bits/(Pixel*Frame) : 0.089
Stream size : 71.2 MiB (77%)
Default : Yes
Forced : No
Audio
ID : 2
Format : AC-3
Format/Info : Audio Coding 3
Mode extension : CM (complete main)
Format settings, Endianness : Big
Codec ID : A_AC3
Duration : 14mn 33s
Bit rate mode : Constant
Bit rate : 192 Kbps
Channel(s) : 2 channels
Channel positions : Front: L R
Sampling rate : 48.0 KHz
Bit depth : 16 bits
Compression mode : Lossy
Stream size : 20.0 MiB (21%)
Default : Yes
Forced : No

Скриншоты

Изобретатели встречают Новый Год
Год выпуска: 2009
Продолжительность: 00:08:01
Видео: 649 kbps, 640х480 (4:3), 25.000 fps, AVC (High@L3.0)
Аудио: 192 kbps, 48.0 kHz, 16 bits, 2 channels, AC-3

MediaInfo

General
Unique ID : 220755697569784540212706881888056834660 (0xA6140036AE794C7FA8A9C5A02C18FA64)
Complete name : D: Изобретатели. Выпуск 2. Новый год.mkv
Format : Matroska
Format version : Version 4 / Version 2
File size : 49.2 MiB
Duration : 8mn 1s
Overall bit rate mode : Variable
Overall bit rate : 858 Kbps
Encoded date : UTC 2019-05-12 05:36:57
Writing application : mkvmerge v6.6.0 ('The Edge Of The In Between') built on Dec 1 2013 17:55:00
Writing library : libebml v1.3.0 + libmatroska v1.4.1
Video
ID : 1
Format : AVC
Format/Info : Advanced Video Codec
Format profile : Main@L3.0
Format settings, CABAC : Yes
Format settings, ReFrames : 3 frames
Codec ID : V_MPEG4/ISO/AVC
Duration : 8mn 1s
Bit rate mode : Variable
Bit rate : 649 Kbps
Maximum bit rate : 40.0 Mbps
Width : 640 pixels
Height : 480 pixels
Display aspect ratio : 4:3
Frame rate mode : Constant
Frame rate : 25.000 fps
Color space : YUV
Chroma subsampling : 4:2:0
Bit depth : 8 bits
Scan type : Progressive
Bits/(Pixel*Frame) : 0.085
Stream size : 37.2 MiB (76%)
Default : Yes
Forced : No
Audio
ID : 2
Format : AC-3
Format/Info : Audio Coding 3
Mode extension : CM (complete main)
Format settings, Endianness : Big
Codec ID : A_AC3
Duration : 8mn 1s
Bit rate mode : Constant
Bit rate : 192 Kbps
Channel(s) : 2 channels
Channel positions : Front: L R
Sampling rate : 48.0 KHz
Bit depth : 16 bits
Compression mode : Lossy
Stream size : 11.0 MiB (22%)
Default : Yes
Forced : No

Скриншоты

Стихослагатель
Год выпуска: 2011
Продолжительность: 00:13:12
Видео: 684 kbps, 640х480 (4:3), 25.000 fps, AVC (High@L3.0)
Аудио: 192 kbps, 48.0 kHz, 16 bits, 2 channels, AC-3

MediaInfo

General
Unique ID : 244155339847120200003371631381976110469 (0xB7AE9BA68061888B8E1F53DE913ED585)
Complete name : Изобретатели. Выпуск 3. Стихослагатель.mkv
Format : Matroska
Format version : Version 4 / Version 2
File size : 75.7 MiB
Duration : 12mn 21s
Overall bit rate mode : Variable
Overall bit rate : 857 Kbps
Encoded date : UTC 2019-05-12 05:39:12
Writing application : mkvmerge v6.6.0 ('The Edge Of The In Between') built on Dec 1 2013 17:55:00
Writing library : libebml v1.3.0 + libmatroska v1.4.1
Video
ID : 1
Format : AVC
Format/Info : Advanced Video Codec
Format profile : Main@L3.0
Format settings, CABAC : Yes
Format settings, ReFrames : 3 frames
Codec ID : V_MPEG4/ISO/AVC
Duration : 12mn 21s
Bit rate mode : Variable
Bit rate : 648 Kbps
Maximum bit rate : 40.0 Mbps
Width : 640 pixels
Height : 480 pixels
Display aspect ratio : 4:3
Frame rate mode : Constant
Frame rate : 25.000 fps
Color space : YUV
Chroma subsampling : 4:2:0
Bit depth : 8 bits
Scan type : Progressive
Bits/(Pixel*Frame) : 0.084
Stream size : 57.3 MiB (76%)
Default : Yes
Forced : No
Audio
ID : 2
Format : AC-3
Format/Info : Audio Coding 3
Mode extension : CM (complete main)
Format settings, Endianness : Big
Codec ID : A_AC3
Duration : 12mn 21s
Bit rate mode : Constant
Bit rate : 192 Kbps
Channel(s) : 2 channels
Channel positions : Front: L R
Sampling rate : 48.0 KHz
Bit depth : 16 bits
Compression mode : Lossy
Stream size : 17.0 MiB (22%)
Default : Yes
Forced : No

Скриншоты

Размероменятель
Год выпуска: 2011
Продолжительность: 00:09:00
Видео: 651 kbps, 640х480 (4:3), 25.000 fps, AVC (High@L3.0)
Аудио: 192 kbps, 48.0 kHz, 16 bits, 2 channels, AC-3

MediaInfo

General
Unique ID : 212242134336712518010599992699246122173 (0x9FAC5923809BD949849EF1BD240C94BD)
Complete name : Изобретатели. Выпуск 4. Размероменятель.mkv
Format : Matroska
Format version : Version 4 / Version 2
File size : 55.4 MiB
Duration : 9mn 0s
Overall bit rate mode : Variable
Overall bit rate : 860 Kbps
Encoded date : UTC 2019-05-12 05:41:38
Writing application : mkvmerge v6.6.0 ('The Edge Of The In Between') built on Dec 1 2013 17:55:00
Writing library : libebml v1.3.0 + libmatroska v1.4.1
Video
ID : 1
Format : AVC
Format/Info : Advanced Video Codec
Format profile : Main@L3.0
Format settings, CABAC : Yes
Format settings, ReFrames : 3 frames
Codec ID : V_MPEG4/ISO/AVC
Duration : 9mn 0s
Bit rate mode : Variable
Bit rate : 651 Kbps
Maximum bit rate : 40.0 Mbps
Width : 640 pixels
Height : 480 pixels
Display aspect ratio : 4:3
Frame rate mode : Constant
Frame rate : 25.000 fps
Color space : YUV
Chroma subsampling : 4:2:0
Bit depth : 8 bits
Scan type : Progressive
Bits/(Pixel*Frame) : 0.085
Stream size : 41.9 MiB (76%)
Default : Yes
Forced : No
Audio
ID : 2
Format : AC-3
Format/Info : Audio Coding 3
Mode extension : CM (complete main)
Format settings, Endianness : Big
Codec ID : A_AC3
Duration : 9mn 0s
Bit rate mode : Constant
Bit rate : 192 Kbps
Channel(s) : 2 channels
Channel positions : Front: L R
Sampling rate : 48.0 KHz
Bit depth : 16 bits
Compression mode : Lossy
Stream size : 12.4 MiB (22%)
Default : Yes
Forced : No

Скриншоты

Улётов на Луне
Год выпуска: 2011
Продолжительность: 00:11:23
Видео: 690 kbps, 640х480 (4:3), 25.000 fps, AVC (High@L3.0)
Аудио: 192 kbps, 48.0 kHz, 16 bits, 2 channels, AC-3

MediaInfo

General
Unique ID : 218660945590213921897243147792950353470 (0xA48090F798B1684EB270A3307ABDDE3E)
Complete name : D: Изобретатели. Выпуск 5. Улётов на Луне.mkv
Format : Matroska
Format version : Version 4 / Version 2
File size : 73.3 MiB
Duration : 11mn 23s
Overall bit rate mode : Variable
Overall bit rate : 900 Kbps
Encoded date : UTC 2019-05-11 17:27:47
Writing application : mkvmerge v6.6.0 ('The Edge Of The In Between') built on Dec 1 2013 17:55:00
Writing library : libebml v1.3.0 + libmatroska v1.4.1
Video
ID : 1
Format : AVC
Format/Info : Advanced Video Codec
Format profile : Main@L3.0
Format settings, CABAC : Yes
Format settings, ReFrames : 3 frames
Codec ID : V_MPEG4/ISO/AVC
Duration : 11mn 23s
Bit rate mode : Variable
Bit rate : 690 Kbps
Maximum bit rate : 40.0 Mbps
Width : 640 pixels
Height : 480 pixels
Display aspect ratio : 4:3
Frame rate mode : Constant
Frame rate : 25.000 fps
Color space : YUV
Chroma subsampling : 4:2:0
Bit depth : 8 bits
Scan type : Progressive
Bits/(Pixel*Frame) : 0.090
Stream size : 56.2 MiB (77%)
Default : Yes
Forced : No
Audio
ID : 2
Format : AC-3
Format/Info : Audio Coding 3
Mode extension : CM (complete main)
Format settings, Endianness : Big
Codec ID : A_AC3
Duration : 11mn 23s
Bit rate mode : Constant
Bit rate : 192 Kbps
Channel(s) : 2 channels
Channel positions : Front: L R
Sampling rate : 48.0 KHz
Bit depth : 16 bits
Compression mode : Lossy
Stream size : 15.6 MiB (21%)
Default : Yes
Forced : No

Скриншоты

[opentorrent.pro].t3985.torrent 
Торрент: Зарегистрирован [ 2019-06-28 15:49 ] · A52FB4413FB03E3B0CA41C1CED9A336814B2A2D3

Скачать .torrent

Скачать

14 KB

Статус: проверено
Скачан: 0 раз
Размер: 347 MB  ·  Тип торрента
terms.php
Показать сообщения:    

Текущее время: 04-Июл 18:18

Часовой пояс: UTC ± 0



Вы не можете начинать темы
Вы не можете отвечать на сообщения
Вы не можете редактировать свои сообщения
Вы не можете удалять свои сообщения
Вы не можете голосовать в опросах
Вы не можете прикреплять файлы к сообщениям
Вы можете скачивать файлы