Статистика раздачи
Размер:  268 MB   |    Зарегистрирован:  1 год   |    Скачан:  0 раз
DL-List: Нет

Полного источника не было: Никогда

 
     
 
 

Гость ®

Пол:
Не указан

Дед, лиса и великан
Страна: Казахстан
Жанр: мультфильм, сказка
Продолжительность: 00:22:34
Год выпуска: 2007
Режиссёр: Артур Краус
Роли озвучивал: Андрей Бузиков
Музыка: группа "Блюз Мотель"
Описание: По мотивам казахских народных сказок.
Забавный мультфильм про то, как старик Канбак-Шал ходил рыбачить, а потом конфликтовал с хитрым лисом и спорил с глупым великаном.
Качество: WEBRip
Формат: AVI
Видео: 1524 kbps, 640х480 (4:3), 25.000 fps, MPEG-4 Visual (XviD)
Аудио: 128 kbps, 44.1 kHz, 2 channels, MPEG Audio (MP3)
Субтитры: отсутствуют

Подробные технические данные

General
Complete name : Дед, лиса и великан (2007).avi
Format : AVI
Format/Info : Audio Video Interleave
File size : 268 MiB
Duration : 22mn 34s
Overall bit rate : 1 662 Kbps
Writing application : VirtualDubMod 1.5.10.2 (build 2540/release)
Writing library : VirtualDubMod build 2540/release
Video
ID : 0
Format : MPEG-4 Visual
Format profile : Advanced Simple@L5
Format settings, BVOP : 2
Format settings, QPel : No
Format settings, GMC : No warppoints
Format settings, Matrix : Default (H.263)
Codec ID : XVID
Codec ID/Hint : XviD
Duration : 22mn 34s
Bit rate : 1 524 Kbps
Width : 640 pixels
Height : 480 pixels
Display aspect ratio : 4:3
Frame rate : 25.000 fps
Color space : YUV
Chroma subsampling : 4:2:0
Bit depth : 8 bits
Scan type : Progressive
Compression mode : Lossy
Bits/(Pixel*Frame) : 0.198
Stream size : 246 MiB (92%)
Writing library : XviD 73
Audio
ID : 1
Format : MPEG Audio
Format version : Version 1
Format profile : Layer 3
Codec ID : 55
Codec ID/Hint : MP3
Duration : 22mn 34s
Bit rate mode : Constant
Bit rate : 128 Kbps
Channel(s) : 2 channels
Sampling rate : 44.1 KHz
Compression mode : Lossy
Stream size : 20.7 MiB (8%)
Alignment : Split accross interleaves
Interleave, duration : 40 ms (1.00 video frame)
Interleave, preload duration : 500 ms

Скриншоты

[opentorrent.pro].t3987.torrent 
Торрент: Зарегистрирован [ 2019-06-28 15:49 ] · 80944CDCC27C850F57E3B42D765F3A538A48A2BD

Скачать .torrent

Скачать

11 KB

Статус: проверено
Скачан: 0 раз
Размер: 268 MB  ·  Тип торрента
terms.php
Показать сообщения:    

Текущее время: 04-Июл 17:48

Часовой пояс: UTC ± 0



Вы не можете начинать темы
Вы не можете отвечать на сообщения
Вы не можете редактировать свои сообщения
Вы не можете удалять свои сообщения
Вы не можете голосовать в опросах
Вы не можете прикреплять файлы к сообщениям
Вы можете скачивать файлы