Статистика раздачи
Размер:  118 MB   |    Зарегистрирован:  1 год 1 месяц   |    Скачан:  0 раз
DL-List: Нет

Полного источника не было: Никогда

 
     
 
 

Гость ®

Пол:
Не указан

Пять минут до моря
Страна: Россия
Жанр: мультфильм
Продолжительность: 00:07:07
Год выпуска: 2018
Режиссёр: Наталья Мирзоян
Описание: Девочка хочет купаться в море, но мама говорит ей, что нужно подождать пять минут. Пять минут тянутся для девочки нестерпимо долго...
Доп. информация:
Спецприз жюри и Приз мэтров «за анимацию трепетную как жизнь» - Фестиваль анимации в Суздале (2019)
Специальное упоминание жюри - Международный фестиваль анимации в Загребе (2019)
Качество: WEBRip-AVC
Формат: MP4
Видео: 2183 kbps, 1280х720 (16:9), 25.000 fps, AVC (High@L3.1)
Аудио: 128 kbps, 44.1 kHz, 2 channels, AAC (LC)
Субтитры: английские (hardsub)

Подробные технические данные

General
Complete name : Пять минут до моря (2018).mp4
Format : MPEG-4
Format profile : Base Media / Version 2
Codec ID : mp42
File size : 118 MiB
Duration : 7mn 7s
Overall bit rate mode : Variable
Overall bit rate : 2 313 Kbps
Encoded date : UTC 2019-04-27 07:55:21
Tagged date : UTC 2019-04-27 07:55:21
Writing application : Google
gsst : 0
gstd : 427061
Video
ID : 1
Format : AVC
Format/Info : Advanced Video Codec
Format profile : High@L3.1
Format settings, CABAC : Yes
Format settings, ReFrames : 3 frames
Codec ID : avc1
Codec ID/Info : Advanced Video Coding
Duration : 7mn 7s
Bit rate : 2 183 Kbps
Width : 1 280 pixels
Height : 720 pixels
Display aspect ratio : 16:9
Frame rate mode : Constant
Frame rate : 25.000 fps
Color space : YUV
Chroma subsampling : 4:2:0
Bit depth : 8 bits
Scan type : Progressive
Bits/(Pixel*Frame) : 0.095
Stream size : 111 MiB (94%)
Title : ISO Media file produced by Google Inc. Created on: 04/27/2019.
Encoded date : UTC 2019-04-27 07:55:21
Tagged date : UTC 2019-04-27 07:55:21
Color primaries : BT.709
Transfer characteristics : BT.709
Matrix coefficients : BT.709
Audio
ID : 2
Format : AAC
Format/Info : Advanced Audio Codec
Format profile : LC
Codec ID : 40
Duration : 7mn 7s
Bit rate mode : Variable
Bit rate : 128 Kbps
Channel(s) : 2 channels
Channel positions : Front: L R
Sampling rate : 44.1 KHz
Compression mode : Lossy
Stream size : 6.52 MiB (6%)
Title : ISO Media file produced by Google Inc. Created on: 04/27/2019.
Encoded date : UTC 2019-04-27 07:55:21
Tagged date : UTC 2019-04-27 07:55:21

Скриншоты

[opentorrent.pro].t3988.torrent 
Торрент: Зарегистрирован [ 2019-06-28 15:49 ] · 93E8F023CE122EB25D107DEA420EBEE13EDB32B9

Скачать .torrent

Скачать

19 KB

Статус: проверено
Скачан: 0 раз
Размер: 118 MB  ·  Тип торрента
terms.php
Показать сообщения:    

Текущее время: 05-Авг 01:17

Часовой пояс: UTC ± 0



Вы не можете начинать темы
Вы не можете отвечать на сообщения
Вы не можете редактировать свои сообщения
Вы не можете удалять свои сообщения
Вы не можете голосовать в опросах
Вы не можете прикреплять файлы к сообщениям
Вы можете скачивать файлы