Статистика раздачи
Размер:  1,46 GB   |    Зарегистрирован:  1 год 1 месяц   |    Скачан:  0 раз
DL-List: Нет
Сидов:  14  [  0 KB/s  ]   Личеров:  2  [  0 KB/s  ]  
 
     
 
 

karlll ®

Пол:
Не указан
Стаж:
1 год 4 месяца
Сообщений:
196

Синдбад: Легенда семи морей
Sinbad: Legend of the Seven Seas
Страна: США
Жанр: мультфильм, фэнтези, драма, мелодрама, комедия, приключения, семейный
Год выпуска: 2003
Продолжительность: 01:25:42
Перевод: Профессиональный (полное дублирование) [Пифагор]
Субтитры: русские (полные, комментарии авторов)
Оригинальная аудиодорожка: нет
Режиссер: Патрик Гилмор / Patrick Gilmore, Тим Джонсон / Tim Johnson
В ролях: Брэд Питт, Кэтрин Зета-Джонс, Мишель Пфайффер, Джозеф Файнс, Деннис Хейсбёрт, Тимоти Уэст, Адриано Джаннини, Раман Хуэй, Чунг Чан, Джим Каммингс, Конрад Вернон, Эндрю Бирч
Описание: Мультфильм рассказывает об одном из многочисленных приключений известного аравийского моряка Синдбада. Приключение начинается тогда, когда Эрис, богиня Хаоса, крадет Книгу Мира, подставив тем самым Синдбада и сделав из него преступника.
Намеревающийся доказать свою невиновность, а также спасти жизнь своего лучшего друга Протеуса Шейпершифера, моряк отправляется в царство Эрис, кишащее ужасными монстрами, такими как гигантские скорпионы, змеи и 40-футовые птицы, сделанные из льда и снега.
Даже если Синдбад сможет обезвредить всех этих чудовищ, ему также придется иметь дело с магией Эрис, обладающей эффектом Яблока Раздора, которое имеет способность превратить друзей во врагов, когда оно брошено посреди них. Синдбаду помогает во всем Марина, подруга Протеуса.

Автор рипа: stalkerok
Сэмпл
Качество видео: BDRip-AVC [Sinbad.Legend.of.the.Seven.Seas.2003.BDRemux.TeamHD]
Формат видео: MKV
Видео кодек: AVC
Аудио кодек: AC3
Видео: AVC, 2055 Кбит/сек, 1058x572 (1.85:1), 23,976 кадр/сек
Аудио: AC3, 384 Кбит/сек, 48 КГц, 5.1 - русский
Навигация по главам: есть

x264/MediaInfo

---[Information] [17.06.2019 19:11:08] x264 [info]: frame I:1013 Avg QP:15.74 size: 62074
---[Information] [17.06.2019 19:11:08] x264 [info]: frame P:32788 Avg QP:18.99 size: 19492
---[Information] [17.06.2019 19:11:08] x264 [info]: frame B:89505 Avg QP:20.27 size: 6921
General
Unique ID : 318720921265107037899510592918056338659 (0xEFC76AA764A08B3B6A0DAC2A75E004E3)
Complete name : M:\temp\Sinbad Legend of the Seven Seas\Sinbad.Legend.of.the.Seven.Seas.2003.BDRip.x264.Rus.stalkerok.New-Team.mkv
Format : Matroska
Format version : Version 4 / Version 2
File size : 1.46 GiB
Duration : 1 h 25 min
Overall bit rate : 2 441 kb/s
Movie name : Sinbad: Legend of the Seven Seas (2003) | Rip by stalkerok
Encoded date : UTC 2019-06-17 16:53:29
Writing application : mkvmerge v33.1.0 ('Primrose') 64-bit
Writing library : libebml v1.3.7 + libmatroska v1.5.0
Video
ID : 1
Format : AVC
Format/Info : Advanced Video Codec
Format profile : High@L4.1
Format settings, CABAC : Yes
Format settings, ReFrames : 12 frames
Codec ID : V_MPEG4/ISO/AVC
Duration : 1 h 25 min
Bit rate : 2 056 kb/s
Width : 1 058 pixels
Height : 572 pixels
Display aspect ratio : 1.85:1
Frame rate mode : Constant
Frame rate : 23.976 FPS
Color space : YUV
Chroma subsampling : 4:2:0
Bit depth : 8 bits
Scan type : Progressive
Bits/(Pixel*Frame) : 0.142
Stream size : 1.23 GiB (84%)
Title : Sinbad: Legend of the Seven Seas (2003) | Rip by stalkerok
Writing library : x264 core 157 r2969 d4099dd
Encoding settings : cabac=1 / ref=12 / deblock=1:-2:-1 / analyse=0x3:0x133 / me=umh / subme=11 / psy=1 / psy_rd=1.00:0.00 / mixed_ref=1 / me_range=32 / chroma_me=1 / trellis=2 / 8x8dct=1 / cqm=0 / deadzone=21,11 / fast_pskip=0 / chroma_qp_offset=-2 / threads=12 / lookahead_threads=3 / sliced_threads=0 / nr=0 / decimate=1 / interlaced=0 / bluray_compat=0 / constrained_intra=0 / bframes=15 / b_pyramid=2 / b_adapt=2 / b_bias=0 / direct=3 / weightb=1 / open_gop=0 / weightp=2 / keyint=240 / keyint_min=23 / scenecut=40 / intra_refresh=0 / rc_lookahead=60 / rc=crf / mbtree=0 / crf=18.9 / qcomp=0.65 / qpmin=0 / qpmax=69 / qpstep=4 / vbv_maxrate=50000 / vbv_bufsize=62500 / crf_max=0.0 / nal_hrd=none / filler=0 / ip_ratio=1.40 / pb_ratio=1.30 / aq=3:0.80 / zones=112627,123305,q=32
Default : Yes
Forced : No
Audio
ID : 2
Format : AC-3
Format/Info : Audio Coding 3
Mode extension : CM (complete main)
Format settings, Endianness : Big
Codec ID : A_AC3
Duration : 1 h 25 min
Bit rate mode : Constant
Bit rate : 384 kb/s
Channel(s) : 6 channels
Channel positions : Front: L C R, Side: L R, LFE
Sampling rate : 48.0 kHz
Frame rate : 31.250 FPS (1536 spf)
Compression mode : Lossy
Stream size : 235 MiB (16%)
Title : Dub
Language : Russian
Default : Yes
Forced : No
Text #1
ID : 3
Format : UTF-8
Codec ID : S_TEXT/UTF8
Codec ID/Info : UTF-8 Plain Text
Duration : 1 h 17 min
Bit rate : 70 b/s
Count of elements : 712
Stream size : 40.1 KiB (0%)
Title : full
Language : Russian
Default : No
Forced : No
Text #2
ID : 4
Format : UTF-8
Codec ID : S_TEXT/UTF8
Codec ID/Info : UTF-8 Plain Text
Duration : 1 h 18 min
Bit rate : 207 b/s
Count of elements : 1382
Stream size : 119 KiB (0%)
Title : comments
Language : Russian
Default : No
Forced : No
Menu
00:00:00.000 : :Chapter 01
00:04:14.712 : :Chapter 02
00:09:17.974 : :Chapter 03
00:13:11.457 : :Chapter 04
00:18:30.776 : :Chapter 05
00:23:36.957 : :Chapter 06
00:29:18.006 : :Chapter 07
00:34:38.868 : :Chapter 08
00:38:23.300 : :Chapter 09
00:42:50.150 : :Chapter 10
00:45:52.166 : :Chapter 11
00:49:04.065 : :Chapter 12
00:53:04.598 : :Chapter 13
01:00:56.486 : :Chapter 14
01:06:36.742 : :Chapter 15
01:10:40.569 : :Chapter 16
01:15:09.671 : :Chapter 17
01:18:18.694 : :Chapter 18

Скриншоты

[opentorrent.pro].t3989.torrent 
Торрент: Зарегистрирован [ 2019-06-28 15:49 ] · 55F43D726F6EA329E3D24BF478C4670F5068032C

Скачать .torrent

Скачать

15 KB

Статус: проверено
Скачан: 0 раз
Размер: 1,46 GB  ·  Тип торрента
terms.php
Профиль [ЛС]
Показать сообщения:    

Текущее время: 08-Авг 17:13

Часовой пояс: UTC ± 0



Вы не можете начинать темы
Вы не можете отвечать на сообщения
Вы не можете редактировать свои сообщения
Вы не можете удалять свои сообщения
Вы не можете голосовать в опросах
Вы не можете прикреплять файлы к сообщениям
Вы можете скачивать файлы