Статистика раздачи
Размер:  744 MB   |    Зарегистрирован:  1 год   |    Скачан:  0 раз
DL-List: Нет
Сидов:  3  [  0 KB/s  ]   Личеров:  1  [  0 KB/s  ]  
 
     
 
 

karlll ®

Пол:
Не указан
Стаж:
1 год 4 месяца
Сообщений:
196

Синдбад: Легенда семи морей
Sinbad: Legend of the Seven Seas
Страна: США
Жанр: мультфильм, фэнтези, драма, мелодрама, комедия, приключения, семейный
Год выпуска: 2003
Продолжительность: 01:25:42
Перевод: Профессиональный (полное дублирование) [Пифагор]
Субтитры: русские (полные, комментарии авторов)
Оригинальная аудиодорожка: нет
Режиссер: Патрик Гилмор / Patrick Gilmore, Тим Джонсон / Tim Johnson
В ролях: Брэд Питт, Кэтрин Зета-Джонс, Мишель Пфайффер, Джозеф Файнс, Деннис Хейсбёрт, Тимоти Уэст, Адриано Джаннини, Раман Хуэй, Чунг Чан, Джим Каммингс, Конрад Вернон, Эндрю Бирч
Описание: Мультфильм рассказывает об одном из многочисленных приключений известного аравийского моряка Синдбада. Приключение начинается тогда, когда Эрис, богиня Хаоса, крадет Книгу Мира, подставив тем самым Синдбада и сделав из него преступника.
Намеревающийся доказать свою невиновность, а также спасти жизнь своего лучшего друга Протеуса Шейпершифера, моряк отправляется в царство Эрис, кишащее ужасными монстрами, такими как гигантские скорпионы, змеи и 40-футовые птицы, сделанные из льда и снега.
Даже если Синдбад сможет обезвредить всех этих чудовищ, ему также придется иметь дело с магией Эрис, обладающей эффектом Яблока Раздора, которое имеет способность превратить друзей во врагов, когда оно брошено посреди них. Синдбаду помогает во всем Марина, подруга Протеуса.

Автор рипа: stalkerok
Сэмпл
Качество видео: BDRip-AVC [Sinbad.Legend.of.the.Seven.Seas.2003.BDRemux.TeamHD]
Формат видео: MKV
Видео кодек: AVC
Аудио кодек: AAC
Видео: AVC, 1149 Кбит/сек, 862x466 (1.85:1), 23,976 кадр/сек
Аудио: AAC, 64 Кбит/сек, 48 КГц, 2.0 - русский
Навигация по главам: есть

x264/MediaInfo

---[Information] [18.06.2019 13:54:55] x264 [info]: frame I:1001 Avg QP:16.04 size: 43828
---[Information] [18.06.2019 13:54:55] x264 [info]: frame P:31878 Avg QP:20.98 size: 11547
---[Information] [18.06.2019 13:54:55] x264 [info]: frame B:90427 Avg QP:21.72 size: 3605
General
Unique ID : 242910066806816796427191374505191840382 (0xB6BEC6F3042F97C79C253D45C6529A7E)
Complete name : M:\temp\Sinbad Legend of the Seven Seas\Sinbad.Legend.of.the.Seven.Seas.2003.BDRip.x264.Rus.stalkerok.New-Team..mkv
Format : Matroska
Format version : Version 4
File size : 744 MiB
Duration : 1 h 25 min
Overall bit rate : 1 214 kb/s
Movie name : Sinbad: Legend of the Seven Seas (2003) | Rip by stalkerok
Encoded date : UTC 2019-06-18 11:21:30
Writing application : mkvmerge v33.1.0 ('Primrose') 64-bit
Writing library : libebml v1.3.7 + libmatroska v1.5.0
Video
ID : 1
Format : AVC
Format/Info : Advanced Video Codec
Format profile : High@L4.1
Format settings : CABAC / 12 Ref Frames
Format settings, CABAC : Yes
Format settings, RefFrames : 12 frames
Codec ID : V_MPEG4/ISO/AVC
Duration : 1 h 25 min
Bit rate : 1 149 kb/s
Width : 862 pixels
Height : 466 pixels
Display aspect ratio : 1.85:1
Frame rate mode : Constant
Frame rate : 23.976 FPS
Color space : YUV
Chroma subsampling : 4:2:0
Bit depth : 8 bits
Scan type : Progressive
Bits/(Pixel*Frame) : 0.119
Stream size : 704 MiB (95%)
Title : Sinbad: Legend of the Seven Seas (2003) | Rip by stalkerok
Writing library : x264 core 157 r2969 d4099dd
Encoding settings : cabac=1 / ref=12 / deblock=1:-2:-1 / analyse=0x3:0x133 / me=umh / subme=10 / psy=1 / psy_rd=1.00:0.00 / mixed_ref=1 / me_range=32 / chroma_me=1 / trellis=2 / 8x8dct=1 / cqm=0 / deadzone=21,11 / fast_pskip=0 / chroma_qp_offset=-2 / threads=12 / lookahead_threads=3 / sliced_threads=0 / nr=0 / decimate=0 / interlaced=0 / bluray_compat=0 / constrained_intra=0 / bframes=16 / b_pyramid=2 / b_adapt=2 / b_bias=0 / direct=3 / weightb=1 / open_gop=0 / weightp=2 / keyint=240 / keyint_min=23 / scenecut=40 / intra_refresh=0 / rc_lookahead=60 / rc=2pass / mbtree=0 / bitrate=1149 / ratetol=1.0 / qcomp=0.65 / qpmin=0 / qpmax=69 / qpstep=4 / cplxblur=20.0 / qblur=0.5 / vbv_maxrate=50000 / vbv_bufsize=62500 / nal_hrd=none / filler=0 / ip_ratio=1.40 / pb_ratio=1.30 / aq=3:0.90 / zones=112627,123305,q=32
Default : Yes
Forced : No
Audio
ID : 2
Format : AAC LC SBR
Format/Info : Advanced Audio Codec Low Complexity with Spectral Band Replication
Commercial name : HE-AAC
Format settings : Explicit
Codec ID : A_AAC-2
Duration : 1 h 25 min
Bit rate : 64.0 kb/s
Channel(s) : 2 channels
Channel layout : L R
Sampling rate : 48.0 kHz
Frame rate : 23.438 FPS (2048 SPF)
Compression mode : Lossy
Delay relative to video : 31 ms
Stream size : 39.2 MiB (5%)
Title : Dub
Language : Russian
Default : Yes
Forced : No
Text #1
ID : 3
Format : UTF-8
Codec ID : S_TEXT/UTF8
Codec ID/Info : UTF-8 Plain Text
Duration : 1 h 17 min
Bit rate : 70 b/s
Count of elements : 712
Stream size : 40.1 KiB (0%)
Title : full
Language : Russian
Default : No
Forced : No
Text #2
ID : 4
Format : UTF-8
Codec ID : S_TEXT/UTF8
Codec ID/Info : UTF-8 Plain Text
Duration : 1 h 18 min
Bit rate : 207 b/s
Count of elements : 1382
Stream size : 119 KiB (0%)
Title : comments
Language : Russian
Default : No
Forced : No
Menu
00:00:00.000 : :Chapter 01
00:04:14.712 : :Chapter 02
00:09:17.974 : :Chapter 03
00:13:11.457 : :Chapter 04
00:18:30.776 : :Chapter 05
00:23:36.957 : :Chapter 06
00:29:18.006 : :Chapter 07
00:34:38.868 : :Chapter 08
00:38:23.300 : :Chapter 09
00:42:50.150 : :Chapter 10
00:45:52.166 : :Chapter 11
00:49:04.065 : :Chapter 12
00:53:04.598 : :Chapter 13
01:00:56.486 : :Chapter 14
01:06:36.742 : :Chapter 15
01:10:40.569 : :Chapter 16
01:15:09.671 : :Chapter 17
01:18:18.694 : :Chapter 18

Скриншоты

[opentorrent.pro].t3991.torrent 
Торрент: Зарегистрирован [ 2019-06-28 15:49 ] · F84B0D27A204BD36F11E9A7DE34121E43267979C

Скачать .torrent

Скачать

15 KB

Статус: проверено
Скачан: 0 раз
Размер: 744 MB  ·  Тип торрента
terms.php
Профиль [ЛС]
Показать сообщения:    

Текущее время: 13-Июл 12:40

Часовой пояс: UTC ± 0



Вы не можете начинать темы
Вы не можете отвечать на сообщения
Вы не можете редактировать свои сообщения
Вы не можете удалять свои сообщения
Вы не можете голосовать в опросах
Вы не можете прикреплять файлы к сообщениям
Вы можете скачивать файлы