Статистика раздачи
Размер:  2,65 GB   |    Зарегистрирован:  1 год   |    Скачан:  0 раз
DL-List: Нет

Полного источника не было: Никогда

 
     
 
 

karlll ®

Пол:
Не указан
Стаж:
1 год 3 месяца
Сообщений:
196

Гринч | The Grinch«Символ нового года»- Год выхода: 2018
Страна: Франция, Китай, Япония, США
Производство: Illumination Entertainment, Universal Pictures
Жанр: мультфильм, фэнтези, комедия, семейный
Продолжительность: 01:25:49
Перевод (1): Профессиональный (дублированный) - Русский - UHD EUR
Перевод (2): Профессиональный (дублированный) - Украинский - LeDoyen Studio
Субтитры: Русские (форс., полные), Украинские (форс.), Английские (полные, SDH)
Оригинальная аудиодорожка: Английская
Навигация по главам: Есть (20 глав)-Режиссер:
Ярроу Чейни / Yarrow Cheney, Скотт Моужер / Scott Mosier-В ролях:
Бенедикт Камбербэтч, Кэмерон Сили, Рашида Джонс, Фаррелл Уильямс, Тристан О`Хара, Кенан Томпсон, Сэм Лаваньино, Рамон Хэмилтон, Анджела Лэнсбери, Скарлет Эстевез, Майкл Битти, Лори Алан, Ивэн Кишияма-О фильме:Любой бы на месте Гринча позеленел и взбесился. Как порядочный интроверт он живёт в тёмной пещере на самой вершине горы подальше ото всех, но эти «все» готовят грандиознейшее празднование нового года. Они шумят, всё украшают и дико бесят. Кто бы отказал себе в удовольствии испортить праздник? Гринч решает украсть Новый год.-
«Гринч» - анимационный фильм, созданный по мотивам книги Доктора Сьюза «Как Гринч украл Рождество», а также ремейк одноимённого кинофильма 2000 года. Produced by Illumination Entertainment-
IMDb: 6.30 (30 266)
Sample
релиз: -Качество: BDRip-AVC | BDRemux 1080p
Формат: MKV
Видео: AVC 3 334 kb/s 1104 x 462 (2.390) 23.976 fps
Аудио #1: 48 kHz, AC3 Dolby Digital, 3/2 (L,C,R,l,r) + LFE ch, 448 kbps avg (RUS) - UHD EUR
Аудио #2: 48 kHz, AC3 Dolby Digital, 2/0 (L,R) ch, 192 kbps avg (UKR)- LeDoyen Studio
Аудио #3: 48 kHz, AC3 Dolby Digital, 3/2 (L,C,R,l,r) + LFE ch, ~448.00 kbps avg (ENG)
Формат субтитров: Softsub (.srt*)
-

Скриншоты




MediaInfo | log

Log

x264 [info]: frame I:1059 Avg QP:14.17 size:102743
x264 [info]: frame P:30805 Avg QP:15.43 size: 34925
x264 [info]: frame B:91592 Avg QP:18.14 size: 10494
x264 [info]: consecutive B-frames: 3.6% 6.1% 8.7% 30.8% 15.2% 24.6% 4.2% 3.7% 1.3% 0.9% 0.8%
x264 [info]: mb I I16..4: 6.3% 64.8% 28.9%
x264 [info]: mb P I16..4: 1.5% 14.7% 2.5% P16..4: 25.4% 32.1% 15.3% 3.7% 0.6% skip: 4.1%
x264 [info]: mb B I16..4: 0.3% 1.8% 0.3% B16..8: 27.5% 21.0% 4.6% direct: 7.0% skip:37.5% L0:40.8% L1:38.6% BI:20.6%
x264 [info]: 8x8 transform intra:76.2% inter:50.1%
x264 [info]: direct mvs spatial:99.8% temporal:0.2%
x264 [info]: coded y,uvDC,uvAC intra: 87.2% 95.7% 90.7% inter: 23.9% 30.4% 19.5%
x264 [info]: i16 v,h,dc,p: 25% 22% 6% 46%
x264 [info]: i8 v,h,dc,ddl,ddr,vr,hd,vl,hu: 11% 13% 11% 8% 10% 10% 11% 11% 14%
x264 [info]: i4 v,h,dc,ddl,ddr,vr,hd,vl,hu: 10% 13% 9% 8% 14% 12% 13% 10% 12%
x264 [info]: i8c dc,h,v,p: 43% 24% 15% 18%
x264 [info]: Weighted P-Frames: Y:5.4% UV:3.8%
x264 [info]: ref P L0: 47.7% 10.9% 15.9% 6.4% 5.1% 3.8% 3.3% 1.8% 1.7% 1.5% 1.5% 0.2% 0.0%
x264 [info]: ref B L0: 72.0% 11.1% 6.2% 3.0% 2.4% 1.9% 1.5% 1.0% 0.7% 0.3%
x264 [info]: ref B L1: 94.2% 5.8%
x264 [info]: kb/s:3333.89
x264 [total]: encoded 123456 frames, 13.52 fps, 3333.89 kb/s
Format : Matroska
Format version : Version 4
File size : 2.65 GiB
Duration : 1 h 25 min
Overall bit rate : 4 424 kb/s
Movie name : The Grinch (2018) [rutracker.org]
Encoded date : UTC 2019-06-18 17:00:54
Writing application : mkvmerge v34.0.0 ('Sight and Seen') 64-bit
Writing library : libebml v1.3.7 + libmatroska v1.5.0
Video
ID : 1
Format : AVC
Format/Info : Advanced Video Codec
Format profile : High@L4.1
Format settings : CABAC / 11 Ref Frames
Format settings, CABAC : Yes
Format settings, Reference frames : 11 frames
Codec ID : V_MPEG4/ISO/AVC
Duration : 1 h 25 min
Bit rate : 3 334 kb/s
Width : 1 104 pixels
Height : 462 pixels
Display aspect ratio : 2.40:1
Frame rate mode : Constant
Frame rate : 23.976 (24000/1001) FPS
Color space : YUV
Chroma subsampling : 4:2:0
Bit depth : 8 bits
Scan type : Progressive
Bits/(Pixel*Frame) : 0.273
Stream size : 2.00 GiB (75%)
Title : The Grinch (2018) [rutracker.org]
Writing library : x264 core 157 r2969 d4099dd
Encoding settings : cabac=1 / ref=11 / deblock=1:-3:-2 / analyse=0x3:0x133 / me=umh / subme=11 / psy=1 / psy_rd=1.00:0.05 / mixed_ref=1 / me_range=48 / chroma_me=1 / trellis=2 / 8x8dct=1 / cqm=0 / deadzone=21,11 / fast_pskip=0 / chroma_qp_offset=-3 / threads=12 / lookahead_threads=3 / sliced_threads=0 / nr=0 / decimate=1 / interlaced=0 / bluray_compat=0 / constrained_intra=0 / bframes=10 / b_pyramid=2 / b_adapt=2 / b_bias=0 / direct=3 / weightb=1 / open_gop=0 / weightp=2 / keyint=250 / keyint_min=23 / scenecut=40 / intra_refresh=0 / rc_lookahead=60 / rc=crf / mbtree=0 / crf=16.0 / qcomp=0.60 / qpmin=0 / qpmax=69 / qpstep=4 / vbv_maxrate=50000 / vbv_bufsize=62500 / crf_max=0.0 / nal_hrd=none / filler=0 / ip_ratio=1.40 / pb_ratio=1.30 / aq=3:0.90
Language : English
Default : Yes
Forced : No
Audio #1
ID : 2
Format : AC-3
Format/Info : Audio Coding 3
Commercial name : Dolby Digital
Codec ID : A_AC3
Duration : 1 h 25 min
Bit rate mode : Constant
Bit rate : 448 kb/s
Channel(s) : 6 channels
Channel layout : L R C LFE Ls Rs
Sampling rate : 48.0 kHz
Frame rate : 31.250 FPS (1536 SPF)
Bit depth : 16 bits
Compression mode : Lossy
Stream size : 275 MiB (10%)
Title : DUB (UHD EUR)
Language : Russian
Service kind : Complete Main
Default : Yes
Forced : No
Audio #2
ID : 3
Format : AC-3
Format/Info : Audio Coding 3
Commercial name : Dolby Digital
Codec ID : A_AC3
Duration : 1 h 25 min
Bit rate mode : Constant
Bit rate : 192 kb/s
Channel(s) : 2 channels
Channel layout : L R
Sampling rate : 48.0 kHz
Frame rate : 31.250 FPS (1536 SPF)
Bit depth : 16 bits
Compression mode : Lossy
Stream size : 118 MiB (4%)
Title : DUB (LeDoyen Studio)
Language : Ukrainian
Service kind : Complete Main
Default : No
Forced : No
Audio #3
ID : 4
Format : AC-3
Format/Info : Audio Coding 3
Commercial name : Dolby Digital
Codec ID : A_AC3
Duration : 1 h 25 min
Bit rate mode : Constant
Bit rate : 448 kb/s
Channel(s) : 6 channels
Channel layout : L R C LFE Ls Rs
Sampling rate : 48.0 kHz
Frame rate : 31.250 FPS (1536 SPF)
Bit depth : 16 bits
Compression mode : Lossy
Stream size : 275 MiB (10%)
Title : Original
Language : English
Service kind : Complete Main
Default : No
Forced : No
Text #1
ID : 5
Format : UTF-8
Codec ID : S_TEXT/UTF8
Codec ID/Info : UTF-8 Plain Text
Duration : 1 h 12 min
Bit rate : 2 b/s
Count of elements : 26
Stream size : 1.12 KiB (0%)
Title : Forced
Language : Russian
Default : Yes
Forced : No
Text #2
ID : 6
Format : UTF-8
Codec ID : S_TEXT/UTF8
Codec ID/Info : UTF-8 Plain Text
Duration : 1 h 17 min
Bit rate : 68 b/s
Count of elements : 991
Stream size : 38.7 KiB (0%)
Title : Full
Language : Russian
Default : No
Forced : No
Text #3
ID : 7
Format : UTF-8
Codec ID : S_TEXT/UTF8
Codec ID/Info : UTF-8 Plain Text
Duration : 1 h 12 min
Bit rate : 2 b/s
Count of elements : 26
Stream size : 1.10 KiB (0%)
Title : Forced
Language : Ukrainian
Default : No
Forced : No
Text #4
ID : 8
Format : UTF-8
Codec ID : S_TEXT/UTF8
Codec ID/Info : UTF-8 Plain Text
Duration : 1 h 17 min
Bit rate : 52 b/s
Count of elements : 1024
Stream size : 30.0 KiB (0%)
Title : Full
Language : English
Default : No
Forced : No
Text #5
ID : 9
Format : UTF-8
Codec ID : S_TEXT/UTF8
Codec ID/Info : UTF-8 Plain Text
Duration : 1 h 20 min
Bit rate : 60 b/s
Count of elements : 1304
Stream size : 35.7 KiB (0%)
Title : SDH
Language : English
Default : No
Forced : No
Menu
00:00:00.000 : en:Chapter 1
00:05:40.298 : en:Chapter 2
00:10:35.927 : en:Chapter 3
00:14:14.103 : en:Chapter 4
00:17:45.106 : en:Chapter 5
00:22:19.296 : en:Chapter 6
00:26:28.337 : en:Chapter 7
00:30:45.093 : en:Chapter 8
00:34:46.584 : en:Chapter 9
00:38:37.190 : en:Chapter 10
00:44:40.595 : en:Chapter 11
00:47:27.678 : en:Chapter 12
00:52:37.488 : en:Chapter 13
00:56:33.181 : en:Chapter 14
01:01:04.995 : en:Chapter 15
01:05:34.639 : en:Chapter 16
01:07:23.456 : en:Chapter 17
01:12:14.914 : en:Chapter 18
01:14:12.782 : en:Chapter 19
01:18:08.309 : en:Chapter 20
-
[opentorrent.pro].t3992.torrent 
Торрент: Зарегистрирован [ 2019-06-28 15:49 ] · 8E6E9A257205A1173A2180D62191BF4744AC6DD4

Скачать .torrent

Скачать

14 KB

Статус: проверено
Скачан: 0 раз
Размер: 2,65 GB  ·  Тип торрента
terms.php
Профиль [ЛС]
Показать сообщения:    

Текущее время: 08-Июл 08:31

Часовой пояс: UTC ± 0



Вы не можете начинать темы
Вы не можете отвечать на сообщения
Вы не можете редактировать свои сообщения
Вы не можете удалять свои сообщения
Вы не можете голосовать в опросах
Вы не можете прикреплять файлы к сообщениям
Вы можете скачивать файлы