Статистика раздачи
Размер:  3,38 GB   |    Зарегистрирован:  1 год   |    Скачан:  0 раз
DL-List: Нет

Полного источника не было: Никогда

 
     
 
 

karlll ®

Пол:
Не указан
Стаж:
1 год 3 месяца
Сообщений:
196

Босс-молокосос | The Boss Baby«Прирождённый лидер»- Год выпуска: 2017
Страна: США | DreamWorks Animation
Жанр: мультфильм, комедия, семейный
Продолжительность: 01:37:30
Перевод: Профессиональный (дублированный) Rus BD EUR, Ukr студія Postmodern
Перевод : Авторский (одноголосый закадровый) Антон Карповский
Субтитры: русские (Forced, Full), украинские (Forced, Full), английские (Forced, Full, SDH, SDH Colored)
Оригинальная аудиодорожка: английский-Режиссер: Том МакГрат / Tom McGrath-В ролях (озвучивание):
Алек Болдуин | Alec Baldwin
Стив Бушеми | Steve Buscemi
Тоби Магуайр | Tobey Maguire

Джимми Киммел, Лиза Кудроу, Майлз Кристофер Бакши, Джеймс МакГрат, Конрад Вернон, ВивиЭнн Йи, Эрик Белл мл.-Описание:Эта актуальная во все времена история для взрослых и детей рассказывается от лица семилетнего брата новорожденного — фантазера Тима, который ревнует его к родителям. Но главный герой — совсем не простой ребенок, он обладает лидерскими задатками, уже носит деловые костюмы и во всем видит бизнес-задачу.
Однажды Тим узнает о готовящемся заговоре, целью которого является уничтожение любви, и организовал его директор компании «Puppy Co». Но одному Тиму не по силам его остановить. Мальчику предстоит объединиться со своим «нелюбимым» братом, чтобы спасти родителей и вернуть порядок на Земле.
-
«Босс-молокосос» (англ. The Boss Baby) — американский мультфильм режиссёра Тома Макграта и созданный DreamWorks Animation, снятый по одноимённой книге Марлы Фрэйзи о мальчике Тиме, открывающем для себя заговор, который организовал директор компании Puppy Co, стремящийся уничтожить любовь во всём мире.-Доп. инфо
Заказ перевода у Антона Карповского (декабрь 2017) - ylnian - Спасибо!
За сборку дороги спасибо! xfiles
-Sample

imdb.com 6.40 (35 593)
релиз: -Качество видео: BDRip-AVC (исходник: BDRemux 1080p)
Формат видео: MKV
Видео: AVC 3162 kb/s 1120 x 476 (2.353) 23.976 fps
Аудио 1: 48 kHz, AC3 Dolby Digital, 3/2 (L,C,R,l,r) + LFE ch, ~448.00 kbps avg | RUS DUB BD EUR
Аудио 1: 48 kHz, AC3 Dolby Digital, 3/2 (L,C,R,l,r) + LFE ch, ~448.00 kbps avg | RUS AVO Антон Карповский
Аудио 2: 48 kHz, AC3 Dolby Digital, 3/2 (L,C,R,l,r) + LFE ch, ~448.00 kbps avg | UKR DUB Cтудія Postmodern
Аудио 3: 48 kHz, AC3 Dolby Digital, 3/2 (L,C,R,l,r) + LFE ch, ~448.00 kbps avg | ENG

Инфо | Log

Log

x264 [info]: frame I:1457 Avg QP:12.94 size: 86594
x264 [info]: frame P:38122 Avg QP:14.72 size: 31147
x264 [info]: frame B:100701 Avg QP:17.51 size: 9917
x264 [info]: consecutive B-frames: 4.7% 5.0% 17.9% 33.6% 15.4% 14.8% 3.8% 2.7% 1.1% 0.5% 0.5%
x264 [info]: mb I I16..4: 11.0% 60.3% 28.7%
x264 [info]: mb P I16..4: 1.7% 13.4% 3.3% P16..4: 23.7% 32.5% 14.4% 4.1% 0.5% skip: 6.4%
x264 [info]: mb B I16..4: 0.3% 1.5% 0.4% B16..8: 29.8% 23.9% 5.2% direct: 5.1% skip:33.9% L0:42.4% L1:42.0% BI:15.6%
x264 [info]: 8x8 transform intra:70.7% inter:46.1%
x264 [info]: direct mvs spatial:99.6% temporal:0.4%
x264 [info]: coded y,uvDC,uvAC intra: 86.9% 92.7% 84.6% inter: 20.2% 24.4% 14.1%
x264 [info]: i16 v,h,dc,p: 18% 19% 7% 56%
x264 [info]: i8 v,h,dc,ddl,ddr,vr,hd,vl,hu: 12% 14% 10% 8% 10% 10% 11% 11% 14%
x264 [info]: i4 v,h,dc,ddl,ddr,vr,hd,vl,hu: 12% 14% 6% 8% 14% 12% 13% 10% 12%
x264 [info]: i8c dc,h,v,p: 38% 27% 17% 18%
x264 [info]: Weighted P-Frames: Y:2.9% UV:2.5%
x264 [info]: ref P L0: 52.4% 7.4% 15.8% 7.2% 4.7% 3.4% 2.9% 1.9% 1.5% 1.3% 1.3% 0.1% 0.0%
x264 [info]: ref B L0: 73.7% 11.3% 5.5% 3.1% 1.9% 1.5% 1.2% 1.0% 0.5% 0.2%
x264 [info]: ref B L1: 95.1% 4.9%
x264 [info]: kb/s:3161.59
x264 [total]: encoded 140280 frames, 13.86 fps, 3161.59 kb/s
Format : Matroska
Format version : Version 4
File size : 3.38 GiB
Duration : 1 h 37 min
Overall bit rate : 4 957 kb/s
Movie name : The Boss Baby (2017) [rutracker.org]
Encoded date : UTC 2019-06-19 13:08:32
Writing application : mkvmerge v34.0.0 ('Sight and Seen') 64-bit
Writing library : libebml v1.3.7 + libmatroska v1.5.0
Video
ID : 1
Format : AVC
Format/Info : Advanced Video Codec
Format profile : High@L4.1
Format settings : CABAC / 11 Ref Frames
Format settings, CABAC : Yes
Format settings, Reference frames : 11 frames
Codec ID : V_MPEG4/ISO/AVC
Duration : 1 h 37 min
Bit rate : 3 162 kb/s
Width : 1 120 pixels
Height : 476 pixels
Display aspect ratio : 2.35:1
Frame rate mode : Constant
Frame rate : 23.976 (24000/1001) FPS
Color space : YUV
Chroma subsampling : 4:2:0
Bit depth : 8 bits
Scan type : Progressive
Bits/(Pixel*Frame) : 0.247
Stream size : 2.15 GiB (64%)
Title : The Boss Baby (2017) [rutracker.org]
Writing library : x264 core 157 r2969 d4099dd
Encoding settings : cabac=1 / ref=11 / deblock=1:-3:-2 / analyse=0x3:0x133 / me=umh / subme=11 / psy=1 / psy_rd=1.00:0.05 / mixed_ref=1 / me_range=48 / chroma_me=1 / trellis=2 / 8x8dct=1 / cqm=0 / deadzone=21,11 / fast_pskip=0 / chroma_qp_offset=-3 / threads=12 / lookahead_threads=3 / sliced_threads=0 / nr=0 / decimate=1 / interlaced=0 / bluray_compat=0 / constrained_intra=0 / bframes=10 / b_pyramid=2 / b_adapt=2 / b_bias=0 / direct=3 / weightb=1 / open_gop=0 / weightp=2 / keyint=250 / keyint_min=23 / scenecut=40 / intra_refresh=0 / rc_lookahead=60 / rc=crf / mbtree=0 / crf=16.0 / qcomp=0.60 / qpmin=0 / qpmax=69 / qpstep=4 / vbv_maxrate=50000 / vbv_bufsize=62500 / crf_max=0.0 / nal_hrd=none / filler=0 / ip_ratio=1.40 / pb_ratio=1.30 / aq=3:0.90
Language : English
Default : Yes
Forced : No
Audio #1
ID : 2
Format : AC-3
Format/Info : Audio Coding 3
Commercial name : Dolby Digital
Codec ID : A_AC3
Duration : 1 h 37 min
Bit rate mode : Constant
Bit rate : 448 kb/s
Channel(s) : 6 channels
Channel layout : L R C LFE Ls Rs
Sampling rate : 48.0 kHz
Frame rate : 31.250 FPS (1536 SPF)
Bit depth : 16 bits
Compression mode : Lossy
Stream size : 312 MiB (9%)
Title : DUB [Blu-ray EUR]
Language : Russian
Service kind : Complete Main
Default : Yes
Forced : No
Audio #2
ID : 3
Format : AC-3
Format/Info : Audio Coding 3
Commercial name : Dolby Digital
Codec ID : A_AC3
Duration : 1 h 37 min
Bit rate mode : Constant
Bit rate : 448 kb/s
Channel(s) : 6 channels
Channel layout : L R C LFE Ls Rs
Sampling rate : 48.0 kHz
Frame rate : 31.250 FPS (1536 SPF)
Bit depth : 16 bits
Compression mode : Lossy
Stream size : 312 MiB (9%)
Title : AVO (A. Karpovsky)
Language : Russian
Service kind : Complete Main
Default : No
Forced : No
Audio #3
ID : 4
Format : AC-3
Format/Info : Audio Coding 3
Commercial name : Dolby Digital
Codec ID : A_AC3
Duration : 1 h 37 min
Bit rate mode : Constant
Bit rate : 448 kb/s
Channel(s) : 6 channels
Channel layout : L R C LFE Ls Rs
Sampling rate : 48.0 kHz
Frame rate : 31.250 FPS (1536 SPF)
Bit depth : 16 bits
Compression mode : Lossy
Stream size : 312 MiB (9%)
Title : DUB [студія Postmodern]
Language : Ukrainian
Service kind : Complete Main
Default : No
Forced : No
Audio #4
ID : 5
Format : AC-3
Format/Info : Audio Coding 3
Commercial name : Dolby Digital
Codec ID : A_AC3
Duration : 1 h 37 min
Bit rate mode : Constant
Bit rate : 448 kb/s
Channel(s) : 6 channels
Channel layout : L R C LFE Ls Rs
Sampling rate : 48.0 kHz
Frame rate : 31.250 FPS (1536 SPF)
Bit depth : 16 bits
Compression mode : Lossy
Stream size : 312 MiB (9%)
Title : Original
Language : English
Service kind : Complete Main
Default : No
Forced : No
Text #1
ID : 6
Format : UTF-8
Codec ID : S_TEXT/UTF8
Codec ID/Info : UTF-8 Plain Text
Duration : 1 h 19 min
Bit rate : 0 b/s
Count of elements : 21
Stream size : 437 Bytes (0%)
Title : Forced
Language : Russian
Default : Yes
Forced : No
Text #2
ID : 7
Format : UTF-8
Codec ID : S_TEXT/UTF8
Codec ID/Info : UTF-8 Plain Text
Duration : 1 h 36 min
Bit rate : 93 b/s
Count of elements : 1587
Stream size : 65.9 KiB (0%)
Title : Full
Language : Russian
Default : No
Forced : No
Text #3
ID : 8
Format : UTF-8
Codec ID : S_TEXT/UTF8
Codec ID/Info : UTF-8 Plain Text
Duration : 1 h 19 min
Bit rate : 0 b/s
Count of elements : 20
Stream size : 450 Bytes (0%)
Title : Forced
Language : Ukrainian
Default : No
Forced : No
Text #4
ID : 9
Format : UTF-8
Codec ID : S_TEXT/UTF8
Codec ID/Info : UTF-8 Plain Text
Duration : 1 h 36 min
Bit rate : 96 b/s
Count of elements : 1592
Stream size : 68.5 KiB (0%)
Title : Full
Language : Ukrainian
Default : No
Forced : No
Text #5
ID : 10
Format : UTF-8
Codec ID : S_TEXT/UTF8
Codec ID/Info : UTF-8 Plain Text
Duration : 17 s 59 ms
Bit rate : 63 b/s
Count of elements : 9
Stream size : 136 Bytes (0%)
Title : Forced
Language : English
Default : No
Forced : No
Text #6
ID : 11
Format : UTF-8
Codec ID : S_TEXT/UTF8
Codec ID/Info : UTF-8 Plain Text
Duration : 1 h 36 min
Bit rate : 57 b/s
Count of elements : 1574
Stream size : 40.6 KiB (0%)
Title : Full
Language : English
Default : No
Forced : No
Text #7
ID : 12
Format : UTF-8
Codec ID : S_TEXT/UTF8
Codec ID/Info : UTF-8 Plain Text
Duration : 1 h 36 min
Bit rate : 71 b/s
Count of elements : 2013
Stream size : 50.6 KiB (0%)
Title : SDH
Language : English
Default : No
Forced : No
Text #8
ID : 13
Format : UTF-8
Codec ID : S_TEXT/UTF8
Codec ID/Info : UTF-8 Plain Text
Duration : 1 h 37 min
Bit rate : 102 b/s
Count of elements : 2015
Stream size : 73.3 KiB (0%)
Title : SDH Colored
Language : English
Default : No
Forced : No
Menu
00:00:00.000 : en:00:00:00.000
00:03:45.892 : en:00:03:45.892
00:08:58.288 : en:00:08:58.288
00:11:45.914 : en:00:11:45.914
00:14:59.565 : en:00:14:59.565
00:19:38.219 : en:00:19:38.219
00:22:52.788 : en:00:22:52.788
00:28:27.247 : en:00:28:27.247
00:30:26.116 : en:00:30:26.116
00:33:45.482 : en:00:33:45.482
00:36:57.257 : en:00:36:57.257
00:39:18.356 : en:00:39:18.356
00:42:35.344 : en:00:42:35.344
00:46:20.611 : en:00:46:20.611
00:51:37.720 : en:00:51:37.720
00:53:25.285 : en:00:53:25.285
00:56:28.719 : en:00:56:28.719
00:59:35.405 : en:00:59:35.405
01:04:03.173 : en:01:04:03.173
01:08:15.758 : en:01:08:15.758
01:11:29.911 : en:01:11:29.911
01:16:25.247 : en:01:16:25.247
01:23:10.110 : en:01:23:10.110
01:27:36.960 : en:01:27:36.960

Скриншоты




[opentorrent.pro].t3993.torrent 
Торрент: Зарегистрирован [ 2019-06-28 15:49 ] · D4023AFBCC9F94A8E5E1328299D543727A485C62

Скачать .torrent

Скачать

17 KB

Статус: проверено
Скачан: 0 раз
Размер: 3,38 GB  ·  Тип торрента
terms.php
Профиль [ЛС]
Показать сообщения:    

Текущее время: 07-Июл 06:36

Часовой пояс: UTC ± 0



Вы не можете начинать темы
Вы не можете отвечать на сообщения
Вы не можете редактировать свои сообщения
Вы не можете удалять свои сообщения
Вы не можете голосовать в опросах
Вы не можете прикреплять файлы к сообщениям
Вы можете скачивать файлы