Статистика раздачи
Размер:  693 MB   |    Зарегистрирован:  1 год   |    Скачан:  0 раз
DL-List: Нет

Полного источника не было: Никогда

 
     
 
 

karlll ®

Пол:
Не указан
Стаж:
1 год 3 месяца
Сообщений:
196

Скуби-Ду Таинственная карта / Scooby Doo Adventures The Mystery Map
Страна: США
Жанр: Мультипликация
Продолжительность: 00:44:02
Год выпуска: 2013
Перевод: Профессиональный (дублированный)
Русские субтитры: нет-Режиссёр: Йомак Ноф / Jomac Noph
Роли озвучивали: Фрэнк Уэлкер, Стефани Д'Абруццо, Грэй Гриффин, Мэттью Лиллард, Джефф Беннетт-Описание: Очаровательный и смешной пес по кличке Скуби Ду вместе со своим хозяином Шеги и друзьями: Вельмой, Дафни и Фредди постоянно попадают в удивительные приключения. Они расследуют мистические случаи похищения людей и собак, связанные с призраками, заброшенными замками и затерянными сокровищами. И не смотря на то, что Скуби Ду ужасно боится привидений, и думает исключительно о сухариках и собачьих консервах, он всегда оказывается победителем и успешно распутывает все эти загадочные происшествия. Команда собралась в домике на дереве и заказали пиццу. Вдруг Скуби нашёл загадочную пиратскую карту в своём куске пиццы и друзья отправляются на поиски сокровищ.-Релиз от -
СПАСИБО : Lexa1988-L1 - за постер + дорога к мульту
ну и мне за то что все свел, собрал и раздал-Качество: DVDRip
Формат: AVI
Видео: MPEG4, XviD, 720x400 (16:9), 25.000 fps, 2 000 kb/s (0.278 bit/pixel)
Аудио: AC-3, 48.0 kHz, 2 ch, 192 kb/s, CBR
Субтитры: отсутствуют
Семпл: Забираем тут

Подробные технические данные

General
Complete name : Scooby Doo Adventures The Mystery Map.avi
Format : AVI
Format/Info : Audio Video Interleave
File size : 693 MiB
Duration : 44 min 1 s
Overall bit rate : 2 201 kb/s
Writing application : VirtualDubMod 1.5.10.3 | www.virtualdub-fr.org || (build 2550/release)
Writing library : VirtualDubMod build 2550/release
Video
ID : 0
Format : MPEG-4 Visual
Format profile : Advanced Simple@L5
Format settings : BVOP2
Format settings, BVOP : 2
Format settings, QPel : No
Format settings, GMC : No warppoints
Format settings, Matrix : Default (H.263)
Codec ID : XVID
Codec ID/Hint : XviD
Duration : 44 min 1 s
Bit rate : 2 000 kb/s
Width : 720 pixels
Height : 400 pixels
Display aspect ratio : 16:9
Frame rate : 25.000 FPS
Color space : YUV
Chroma subsampling : 4:2:0
Bit depth : 8 bits
Scan type : Progressive
Compression mode : Lossy
Bits/(Pixel*Frame) : 0.278
Stream size : 630 MiB (91%)
Writing library : XviD 1.2.1 (UTC 2008-12-04)
Audio
ID : 1
Format : AC-3
Format/Info : Audio Coding 3
Commercial name : Dolby Digital
Codec ID : 2000
Duration : 44 min 1 s
Bit rate mode : Constant
Bit rate : 192 kb/s
Channel(s) : 2 channels
Channel layout : L R
Sampling rate : 48.0 kHz
Frame rate : 31.250 FPS (1536 SPF)
Bit depth : 16 bits
Compression mode : Lossy
Stream size : 60.5 MiB (9%)
Alignment : Split accross interleaves
Interleave, duration : 40 ms (1.00 video frame)
Interleave, preload duration : 500 ms
Service kind : Complete Main

Скриншоты


[opentorrent.pro].t3994.torrent 
Торрент: Зарегистрирован [ 2019-06-28 15:49 ] · 61350619B3CB499FA6FB754DA1EF19A43604DC35

Скачать .torrent

Скачать

14 KB

Статус: проверено
Скачан: 0 раз
Размер: 693 MB  ·  Тип торрента
terms.php
Профиль [ЛС]
Показать сообщения:    

Текущее время: 07-Июл 06:21

Часовой пояс: UTC ± 0



Вы не можете начинать темы
Вы не можете отвечать на сообщения
Вы не можете редактировать свои сообщения
Вы не можете удалять свои сообщения
Вы не можете голосовать в опросах
Вы не можете прикреплять файлы к сообщениям
Вы можете скачивать файлы