Статистика раздачи
Размер:  2,6 GB   |    Зарегистрирован:  1 год   |    Скачан:  0 раз
DL-List: Нет

Полного источника не было: Никогда

 
     
 
 

karlll ®

Пол:
Не указан
Стаж:
1 год 3 месяца
Сообщений:
196

Волшебный парк Джун | Wonder Park«Мечты ждут»- Страна: Испания, США | Paramount Animation, Nickelodeon Movies, Ilion Animation Studios
Жанр: мультфильм, фэнтези, комедия, приключения, семейный
Год выпуска: 2019
Продолжительность: 01:25:16-Перевод: Профессиональный (дублированный) | iTunes Rus, Ukr
Субтитры: Rus (Forced, Full), Ukr (Forced), Eng (Full)
Оригинальная аудиодорожка: Eng-Режиссер: Дилан Браун / Dylan Brown-В ролях: София Мали, Дженнифер Гарнер, Кен Хадсон Кэмпбелл, Кенан Томпсон, Мила Кунис, Джон Оливер, Кен Жонг, Норберт Лео Батц, Мэттью Бродерик, Брианна Денски-Описание:Однажды фантазерка Джун обнаруживает, что придуманный ею чудесный Парк развлечений реален! Но его существование под угрозой, и Джун нужен план спасения ее Мечты. Помогут девочке ее новые друзья - волшебные звери Парка.-
«Волшебный парк Джун» (англ. Wonder Park) — испано-американский полнометражный анимационный фильм, созданный Paramount Animation и Nickelodeon Movies, с анимацией Ilion Animation Studios.-
IMDb: 5.70 (3517)
Sample
релиз: -Качество видео: BDRip-AVC | Wonder.Park.2019.D.BDREMUX.1080p.seleZen
Формат видео: MKV
Видео: AVC 3372 kb/s 1104 x 460 (2.400) 23.976 fps
Аудио: 48 kHz, AC3 Dolby Digital, 3/2 (L,C,R,l,r) + LFE ch, ~384 kbps Rus
Аудио 2: AAC 156 kb/s 2 channels, 48.0 kHz Ukr
Аудио 3: AC-3 448 kb/s 6 channels, 48.0 kHz Eng

MediaInfo | Log

Log

x264 [info]: frame I:1023 Avg QP:14.72 size: 94044
x264 [info]: frame P:32644 Avg QP:16.00 size: 33841
x264 [info]: frame B:89018 Avg QP:18.75 size: 10736
x264 [info]: consecutive B-frames: 5.2% 4.3% 13.2% 30.2% 16.1% 24.5% 2.8% 1.3% 0.9% 0.8% 0.8%
x264 [info]: mb I I16..4: 7.1% 72.1% 20.8%
x264 [info]: mb P I16..4: 1.1% 19.1% 2.7% P16..4: 22.3% 29.3% 13.5% 3.1% 0.4% skip: 8.5%
x264 [info]: mb B I16..4: 0.1% 2.6% 0.4% B16..8: 28.5% 23.1% 5.0% direct: 5.4% skip:34.9% L0:40.4% L1:40.5% BI:19.1%
x264 [info]: 8x8 transform intra:82.4% inter:57.3%
x264 [info]: direct mvs spatial:99.9% temporal:0.1%
x264 [info]: coded y,uvDC,uvAC intra: 94.2% 97.1% 88.9% inter: 25.5% 28.4% 14.2%
x264 [info]: i16 v,h,dc,p: 6% 6% 6% 83%
x264 [info]: i8 v,h,dc,ddl,ddr,vr,hd,vl,hu: 8% 9% 5% 10% 13% 13% 14% 13% 15%
x264 [info]: i4 v,h,dc,ddl,ddr,vr,hd,vl,hu: 9% 7% 3% 9% 18% 15% 16% 11% 13%
x264 [info]: i8c dc,h,v,p: 47% 19% 15% 19%
x264 [info]: Weighted P-Frames: Y:4.6% UV:3.4%
x264 [info]: ref P L0: 52.7% 13.2% 14.2% 5.1% 4.0% 2.8% 2.6% 1.5% 1.4% 1.2% 1.3% 0.1% 0.0%
x264 [info]: ref B L0: 79.6% 9.1% 4.2% 2.1% 1.5% 1.2% 0.9% 0.6% 0.4% 0.2%
x264 [info]: ref B L1: 95.9% 4.1%
x264 [info]: kb/s:3371.72
x264 [total]: encoded 122685 frames, 13.82 fps, 3371.72 kb/s
Format : Matroska
Format version : Version 4
File size : 2.60 GiB
Duration : 1 h 25 min
Overall bit rate : 4 363 kb/s
Movie name : Wonder Park (2019) BDRip [rutracker.org]
Encoded date : UTC 2019-06-23 15:15:41
Writing application : mkvmerge v34.0.0 ('Sight and Seen') 64-bit
Writing library : libebml v1.3.7 + libmatroska v1.5.0
Video
ID : 1
Format : AVC
Format/Info : Advanced Video Codec
Format profile : High@L4.1
Format settings : CABAC / 11 Ref Frames
Format settings, CABAC : Yes
Format settings, Reference frames : 11 frames
Codec ID : V_MPEG4/ISO/AVC
Duration : 1 h 25 min
Bit rate : 3 372 kb/s
Width : 1 104 pixels
Height : 460 pixels
Display aspect ratio : 2.40:1
Frame rate mode : Constant
Frame rate : 23.976 (24000/1001) FPS
Color space : YUV
Chroma subsampling : 4:2:0
Bit depth : 8 bits
Scan type : Progressive
Bits/(Pixel*Frame) : 0.277
Stream size : 2.01 GiB (77%)
Title : Wonder Park (2019) BDRip [rutracker.org]
Writing library : x264 core 157 r2969 d4099dd
Encoding settings : cabac=1 / ref=11 / deblock=1:-3:-2 / analyse=0x3:0x133 / me=umh / subme=11 / psy=1 / psy_rd=1.00:0.05 / mixed_ref=1 / me_range=48 / chroma_me=1 / trellis=2 / 8x8dct=1 / cqm=0 / deadzone=21,11 / fast_pskip=0 / chroma_qp_offset=-3 / threads=12 / lookahead_threads=3 / sliced_threads=0 / nr=0 / decimate=1 / interlaced=0 / bluray_compat=0 / constrained_intra=0 / bframes=10 / b_pyramid=2 / b_adapt=2 / b_bias=0 / direct=3 / weightb=1 / open_gop=0 / weightp=2 / keyint=250 / keyint_min=23 / scenecut=40 / intra_refresh=0 / rc_lookahead=60 / rc=crf / mbtree=0 / crf=16.5 / qcomp=0.60 / qpmin=0 / qpmax=69 / qpstep=4 / vbv_maxrate=50000 / vbv_bufsize=62500 / crf_max=0.0 / nal_hrd=none / filler=0 / ip_ratio=1.40 / pb_ratio=1.30 / aq=3:0.90
Language : English
Default : Yes
Forced : No
Audio #1
ID : 2
Format : AC-3
Format/Info : Audio Coding 3
Commercial name : Dolby Digital
Codec ID : A_AC3
Duration : 1 h 25 min
Bit rate mode : Constant
Bit rate : 384 kb/s
Channel(s) : 6 channels
Channel layout : L R C LFE Ls Rs
Sampling rate : 48.0 kHz
Frame rate : 31.250 FPS (1536 SPF)
Bit depth : 16 bits
Compression mode : Lossy
Stream size : 234 MiB (9%)
Title : iTunes
Language : Russian
Service kind : Complete Main
Default : Yes
Forced : No
Audio #2
ID : 3
Format : AAC LC
Format/Info : Advanced Audio Codec Low Complexity
Codec ID : A_AAC-2
Duration : 1 h 25 min
Bit rate : 156 kb/s
Channel(s) : 2 channels
Channel layout : L R
Sampling rate : 48.0 kHz
Frame rate : 46.875 FPS (1024 SPF)
Compression mode : Lossy
Stream size : 95.4 MiB (4%)
Title : iTunes
Language : Ukrainian
Default : No
Forced : No
Audio #3
ID : 4
Format : AC-3
Format/Info : Audio Coding 3
Commercial name : Dolby Digital
Codec ID : A_AC3
Duration : 1 h 25 min
Bit rate mode : Constant
Bit rate : 448 kb/s
Channel(s) : 6 channels
Channel layout : L R C LFE Ls Rs
Sampling rate : 48.0 kHz
Frame rate : 31.250 FPS (1536 SPF)
Bit depth : 16 bits
Compression mode : Lossy
Stream size : 273 MiB (10%)
Title : Original
Language : English
Service kind : Complete Main
Default : No
Forced : No
Text #1
ID : 5
Format : UTF-8
Codec ID : S_TEXT/UTF8
Codec ID/Info : UTF-8 Plain Text
Duration : 1 h 1 min
Bit rate : 0 b/s
Count of elements : 4
Stream size : 124 Bytes (0%)
Title : Forced
Language : Russian
Default : Yes
Forced : Yes
Text #2
ID : 6
Format : UTF-8
Codec ID : S_TEXT/UTF8
Codec ID/Info : UTF-8 Plain Text
Duration : 1 h 17 min
Bit rate : 99 b/s
Count of elements : 1116
Stream size : 56.4 KiB (0%)
Title : Full
Language : Russian
Default : No
Forced : No
Text #3
ID : 7
Format : UTF-8
Codec ID : S_TEXT/UTF8
Codec ID/Info : UTF-8 Plain Text
Duration : 1 h 11 min
Bit rate : 0 b/s
Count of elements : 5
Stream size : 116 Bytes (0%)
Title : Forced
Language : Ukrainian
Default : No
Forced : No
Text #4
ID : 8
Format : UTF-8
Codec ID : S_TEXT/UTF8
Codec ID/Info : UTF-8 Plain Text
Duration : 1 h 17 min
Bit rate : 64 b/s
Count of elements : 1105
Stream size : 36.6 KiB (0%)
Title : Full
Language : English
Default : No
Forced : No
Menu
00:00:00.000 : en:Chapter 01
00:06:34.811 : en:Chapter 02
00:12:05.475 : en:Chapter 03
00:20:22.847 : en:Chapter 04
00:25:49.590 : en:Chapter 05
00:33:03.648 : en:Chapter 06
00:39:14.185 : en:Chapter 07
00:47:39.648 : en:Chapter 08
00:54:39.443 : en:Chapter 09
01:00:32.462 : en:Chapter 10
01:06:17.807 : en:Chapter 11
01:13:12.054 : en:Chapter 12
01:17:49.748 : en:Chapter 13[/pre]
[opentorrent.pro].t3995.torrent 
Торрент: Зарегистрирован [ 2019-06-28 15:49 ] · FC6679009701C7C5605683D13C324B09FBF366A8

Скачать .torrent

Скачать

14 KB

Статус: проверено
Скачан: 0 раз
Размер: 2,6 GB  ·  Тип торрента
terms.php
Профиль [ЛС]
Показать сообщения:    

Текущее время: 09-Июл 11:27

Часовой пояс: UTC ± 0



Вы не можете начинать темы
Вы не можете отвечать на сообщения
Вы не можете редактировать свои сообщения
Вы не можете удалять свои сообщения
Вы не можете голосовать в опросах
Вы не можете прикреплять файлы к сообщениям
Вы можете скачивать файлы