Статистика раздачи
Размер:  745 MB   |    Зарегистрирован:  1 год   |    Скачан:  0 раз
DL-List: Нет

Полного источника не было: Никогда

 
     
 
 

karlll ®

Пол:
Не указан
Стаж:
1 год 3 месяца
Сообщений:
196

Ральф против интернета / Ralph Breaks the Internet
Год выпуска: 2018
Страна: США
Жанр: мультфильм, комедия, приключения, семейный, фантастика
Продолжительность: 01:52:31
Перевод: Профессиональный (полное дублирование)
Субтитры: русские, форсированные - вшитые
Режиссер: Фил Джонстон / Phil Johnston, Рич Мур / Rich Moore
В ролях: Джон Си Райли, Сара Силверман, Галь Гадот, Тараджи П. Хенсон, Джек МакБрайер, Джейн Линч, Алан Тьюдик, Альфред Молина, Эд О’Нил, Шон Джамброун
Описание: На этот раз Ральф и Ванилопа фон Кекс выйдут за пределы зала игровых автоматов и отправятся покорять бескрайние просторы интернета, который может и не выдержать сокрушительного обаяния громилы.
Доп. информация:
Кинопоиск
IMDb
Автор рипа - Scarabey
Сэмпл: http://multi-up.com/1235320
Качество видео: HDRip
Формат видео: AVI
Видео: 688x288 (2.39:1), 23.976 fps, XviD build 73 ~788 kbps avg, 0.17 bit/pixel
Аудио: 48 kHz, MPEG Layer 3, 2 ch, ~128.00 kbps avg

MediaInfo

Общее
Полное имя : Ralph.Breaks.The.Internet_2018_HDRip__[Scarabey].avi
Формат : AVI
Формат/Информация : Audio Video Interleave
Размер файла : 745 Мбайт
Продолжительность : 1 ч. 52 м.
Общий поток : 926 Кбит/сек
Программа кодирования : VirtualDubMod 1.5.10.3 | www.virtualdub-fr.org || (build 2550/release)
Библиотека кодирования : VirtualDubMod build 2550/release
Видео
Идентификатор : 0
Формат : MPEG-4 Visual
Профиль формата : Advanced Simple@L5
Настройки формата : BVOP1 / Custom Matrix
Параметр BVOP формата : 1
Параметр QPel формата : Нет
Параметр GMC формата : Без точки перехода
Параметр матрицы формата : Выборочная
Идентификатор кодека : XVID
Идентификатор кодека/Подсказка : XviD
Продолжительность : 1 ч. 52 м.
Битрейт : 789 Кбит/сек
Ширина : 688 пикселей
Высота : 288 пикселей
Соотношение сторон : 2,40:1
Частота кадров : 23,976 (24000/1001) кадра/сек
Частота кадров в оригинале : 23,976 (23976/1000) кадра/сек
Цветовое пространство : YUV
Субдискретизация насыщенности : 4:2:0
Битовая глубина : 8 бит
Тип развёртки : Прогрессивная
Метод сжатия : С потерями
Бит/(Пиксели*Кадры) : 0.166
Размер потока : 635 Мбайт (85%)
Библиотека кодирования : XviD 73
Аудио
Идентификатор : 1
Формат : MPEG Audio
Версия формата : Version 1
Профиль формата : Layer 3
Идентификатор кодека : 55
Идентификатор кодека/Подсказка : MP3
Продолжительность : 1 ч. 52 м.
Вид битрейта : Постоянный
Битрейт : 128 Кбит/сек
Каналы : 2 канала
Частота : 48,0 КГц
Частота кадров : 41,667 кадра/сек (1152 SPF)
Метод сжатия : С потерями
Размер потока : 103 Мбайт (14%)
Выравнивание : Соединение по промежуткам
Продолжительность промежутка : 42 мс. (1,00 видеокадр)
Время предзагрузки промежутка : 504 мс.
Библиотека кодирования : LAME3.99r
Настройки программы : -m s -V 4 -q 2 -lowpass 17 -b 128

Скриншоты

[opentorrent.pro].t3997.torrent 
Торрент: Зарегистрирован [ 2019-06-28 15:49 ] · 1EC17338471C18D3E42A8214F57E21B3F37D0D04

Скачать .torrent

Скачать

15 KB

Статус: проверено
Скачан: 0 раз
Размер: 745 MB  ·  Тип торрента
terms.php
Профиль [ЛС]
Показать сообщения:    

Текущее время: 07-Июл 05:36

Часовой пояс: UTC ± 0



Вы не можете начинать темы
Вы не можете отвечать на сообщения
Вы не можете редактировать свои сообщения
Вы не можете удалять свои сообщения
Вы не можете голосовать в опросах
Вы не можете прикреплять файлы к сообщениям
Вы можете скачивать файлы