Статистика раздачи
Размер:  745 MB   |    Зарегистрирован:  1 год   |    Скачан:  0 раз
DL-List: Нет
Сидов:  9  [  0 KB/s  ]  
 
     
 
 

karlll ®

Пол:
Не указан
Стаж:
1 год 4 месяца
Сообщений:
196

Остров собак / Isle of Dogs
Страна: Германия, США
Жанр: мультфильм, фантастика, фэнтези, драма, комедия, приключения
Продолжительность: 01:41:09
Год выпуска: 2018
Перевод: Профессиональный (дублированный) iTunes
Русские субтитры: есть
Режиссёр: Уэс Андерсон / Wes Anderson
Роли озвучивали: Брайан Крэнстон
Кою Ранкин
Эдвард Нортон
Боб Бэлабан
Джефф Голдблюм
Билл Мюррей
Кунъити Номура
Акира Такаяма
Грета Гервиг
Фрэнсис МакДорманд
Описание: История 12-летнего мальчика Атари Кобаяши, опекаемого коррумпированным мэром Кобаяши. Когда по Указу последнего все домашние собаки города Мегасаки изгоняются на громадную свалку, Атари в одиночку отправляется на миниатюрном летательном аппарате на мусорный остров, чтобы найти своего верного пса по прозвищу Спотс. Там на острове вместе со стаей новых друзей-дворняг он начнет эпичное путешествие, которое решит будущую судьбу всей Префектуры.
Доп. информация: https://www.kinopoisk.ru/film/939785/
Семпл: http://sendfile.su/1502147
Качество: WEB-DLRip
Формат: AVI
Видео: 688x288 (2.39:1), 23.976 fps, XviD build 73 ~892 kbps avg, 0.19 bit/pixel
Аудио: 48 kHz, MPEG Layer 3, 2 ch, ~128.00 kbps avg
Субтитры: вшитые / форсированные

Подробные технические данные

File: Isle.of.Dogs.2018.745MB.MegaPeer.avi
FileSize: 745.46 Mb ( 781 672 448 bytes )
Play length: 01:41:09.823 (145530 frames)
Subtitles: Not Present
Video: 688x288 (2.39:1), 23.976 fps, XviD build 73 ~892 kbps avg, 0.19 bit/pixel
Audio: 48 kHz, MPEG Layer 3, 2 ch, ~128.00 kbps avg-General
Complete name : D:\Isle.of.Dogs.2018.745MB.MegaPeer.avi
Format : AVI
Format/Info : Audio Video Interleave
File size : 745 MiB
Duration : 1h 41mn
Overall bit rate : 1 030 Kbps
Writing application : VirtualDubMod 1.5.10.2 (build 2540/release)
Writing library : VirtualDubMod build 2540/release
Video
ID : 0
Format : MPEG-4 Visual
Format profile : Advanced Simple@L5
Format settings, BVOP : 1
Format settings, QPel : No
Format settings, GMC : No warppoints
Format settings, Matrix : Custom
Codec ID : XVID
Codec ID/Hint : XviD
Duration : 1h 41mn
Bit rate : 893 Kbps
Width : 688 pixels
Height : 288 pixels
Display aspect ratio : 2.40:1
Frame rate : 23.976 fps
Color space : YUV
Chroma subsampling : 4:2:0
Bit depth : 8 bits
Scan type : Progressive
Compression mode : Lossy
Bits/(Pixel*Frame) : 0.188
Stream size : 646 MiB (87%)
Writing library : XviD 73
Audio
ID : 1
Format : MPEG Audio
Format version : Version 1
Format profile : Layer 3
Codec ID : 55
Codec ID/Hint : MP3
Duration : 1h 41mn
Bit rate mode : Constant
Bit rate : 128 Kbps
Channel count : 2 channels
Sampling rate : 48.0 KHz
Compression mode : Lossy
Stream size : 92.6 MiB (12%)
Alignment : Aligned on interleaves
Interleave, duration : 42 ms (1.00 video frame)
Interleave, preload duration : 504 ms
Writing library : LAME3.99r
Encoding settings : -m s -V 4 -q 2 -lowpass 17 -b 128

Скриншоты

[opentorrent.pro].t3998.torrent 
Торрент: Зарегистрирован [ 2019-06-28 15:49 ] · D31BFE387484B9B2FD9E2A59ED5A7D0D126080AF

Скачать .torrent

Скачать

15 KB

Статус: проверено
Скачан: 0 раз
Размер: 745 MB  ·  Тип торрента
terms.php
Профиль [ЛС]
Показать сообщения:    

Текущее время: 13-Июл 10:36

Часовой пояс: UTC ± 0



Вы не можете начинать темы
Вы не можете отвечать на сообщения
Вы не можете редактировать свои сообщения
Вы не можете удалять свои сообщения
Вы не можете голосовать в опросах
Вы не можете прикреплять файлы к сообщениям
Вы можете скачивать файлы