Статистика раздачи
Размер:  1,44 GB   |    Зарегистрирован:  1 год   |    Скачан:  0 раз
DL-List: Нет

Полного источника не было: Никогда

 
     
 
 

karlll ®

Пол:
Не указан
Стаж:
1 год 3 месяца
Сообщений:
196

Бернард и Бьянка / Спасатели / Bernard und Bianca - Die Mäusepolizei / The Rescuers
Страна: США
Жанр: приключения
Продолжительность: 01:17:13
Год выпуска: 1977
Перевод: Одноголосый закадровый Дамы из Экшн Студио Ленинград /Action Studio/ с немецкого
Русские субтитры: нет
Оригинальная аудиодорожка: английская
Режиссёр: Джон Лоунсбери /John Lounsbery/, Вольфганг Райтерман /Wolfgang Reitherman/, Арт Стивенс /Art Stevens/
Роли озвучивали: Боб Ньюхарт /Bob Newhart/, Ева Габор /Eva Gabor/, Джеральдин Пейдж /Geraldine Page/, Джо Флинн /Joe Flynn/, Жанетт Нолан /Jeanette Nolan/, Пэт Баттрем /Pat Buttram/, Джим Джордан /Jim Jordan/, Джон МакИнтайр /John McIntire/, Мишель Стэйси /Michelle Stacy/, Бернард Фокс /Bernard Fox/...
Описание: обнаружив внутри выброшенной морем бутылки письмо с просьбой о помощи, международная организация мышей-спасателей отправляет двух лучших сотрудников вызволять схваченную злой Медузой несчастную девочку.
Доп. информация: исходник от GVR232; перевод Дамы из ЭСЛ оцифровал и подготовил karlll
Качество: BDRip-AVC ~семпл~
Формат: MKV
Видео: MPEG4 Video (H264) 1076x648 23.976fps 2279Kbps
Аудио 1: Dolby AC3 48KHz 2ch 192Kbps = ЭСЛ
Аудио 2: Dolby AC3 48KHz 2ch 192Kbps = ENG
Субтитры: "отсутствуют"

Подробные технические данные

Format : Matroska
Format version : Version 2
File size : 1.44 GiB
Duration : 1 h 17 min
Overall bit rate : 2 666 kb/s
Movie name : BERNARD UND BIANCA-DIE MAUSEPOLIZEI_1977_BDRIP_ЭКШН СТУДИО_ENG_KBC
Encoded date : UTC 2019-06-24 21:44:50
Writing application : mkvmerge v6.9.1 ('Blue Panther') 32bit built on Apr 18 2014 18:15:44
Writing library : libebml v1.3.0 + libmatroska v1.4.1
Video
ID : 1
Format : AVC
Format/Info : Advanced Video Codec
Format profile : High@L3.1
Format settings : CABAC / 7 Ref Frames
Format settings, CABAC : Yes
Format settings, RefFrames : 7 frames
Codec ID : V_MPEG4/ISO/AVC
Duration : 1 h 17 min
Bit rate : 2 279 kb/s
Width : 1 076 pixels
Height : 648 pixels
Display aspect ratio : 5:3
Frame rate mode : Constant
Frame rate : 23.976 (24000/1001) FPS
Color space : YUV
Chroma subsampling : 4:2:0
Bit depth : 8 bits
Scan type : Progressive
Bits/(Pixel*Frame) : 0.136
Stream size : 1.20 GiB (84%)
Title : Bernard und Bianca - Die Mäusepolizei / The Rescuers _ 1977
Writing library : x264 core 152 r2851kMod ba24899
Encoding settings : cabac=1 / ref=7 / deblock=1:-1:-1 / analyse=0x3:0x113 / me=umh / subme=9 / psy=1 / fade_compensate=0.00 / psy_rd=1.00:0.20 / mixed_ref=1 / me_range=24 / chroma_me=1 / trellis=2 / 8x8dct=1 / cqm=0 / deadzone=21,11 / fast_pskip=0 / chroma_qp_offset=-3 / threads=6 / lookahead_threads=1 / sliced_threads=0 / nr=0 / decimate=0 / interlaced=0 / bluray_compat=0 / constrained_intra=0 / bframes=7 / b_pyramid=2 / b_adapt=2 / b_bias=0 / direct=3 / weightb=1 / open_gop=0 / weightp=2 / keyint=250 / keyint_min=23 / scenecut=40 / intra_refresh=0 / rc_lookahead=50 / rc=2pass / mbtree=1 / bitrate=2279 / ratetol=1.0 / qcomp=0.60 / qpmin=0 / qpmax=69 / qpstep=4 / cplxblur=20.0 / qblur=0.5 / vbv_maxrate=14000 / vbv_bufsize=14000 / nal_hrd=none / filler=0 / ip_ratio=1.40 / aq=1:1.00
Language : German
Default : Yes
Forced : No
Audio #1
ID : 2
Format : AC-3
Format/Info : Audio Coding 3
Commercial name : Dolby Digital
Codec ID : A_AC3
Duration : 1 h 17 min
Bit rate mode : Constant
Bit rate : 192 kb/s
Channel(s) : 2 channels
Channel layout : L R
Sampling rate : 48.0 kHz
Frame rate : 31.250 FPS (1536 SPF)
Bit depth : 16 bits
Compression mode : Lossy
Stream size : 106 MiB (7%)
Title : Экшн Студио /Ленинград/
Language : Russian
Service kind : Complete Main
Default : Yes
Forced : No
Audio #2
ID : 3
Format : AC-3
Format/Info : Audio Coding 3
Commercial name : Dolby Digital
Codec ID : A_AC3
Duration : 1 h 17 min
Bit rate mode : Constant
Bit rate : 192 kb/s
Channel(s) : 2 channels
Channel layout : L R
Sampling rate : 48.0 kHz
Frame rate : 31.250 FPS (1536 SPF)
Bit depth : 16 bits
Compression mode : Lossy
Stream size : 106 MiB (7%)
Title : English
Service kind : Complete Main
Default : No
Forced : No

Скриншоты

[opentorrent.pro].t3999.torrent 
Торрент: Зарегистрирован [ 2019-06-28 15:49 ] · 83107057F9CAE58870862AEB341A5B4238352B14

Скачать .torrent

Скачать

15 KB

Статус: проверено
Скачан: 0 раз
Размер: 1,44 GB  ·  Тип торрента
terms.php
Профиль [ЛС]
Показать сообщения:    

Текущее время: 09-Июл 10:18

Часовой пояс: UTC ± 0



Вы не можете начинать темы
Вы не можете отвечать на сообщения
Вы не можете редактировать свои сообщения
Вы не можете удалять свои сообщения
Вы не можете голосовать в опросах
Вы не можете прикреплять файлы к сообщениям
Вы можете скачивать файлы