Статистика раздачи
Размер:  1,47 GB   |    Зарегистрирован:  1 год   |    Скачан:  0 раз
DL-List: Нет

Полного источника не было: Никогда

 
     
 
 

serzh ®

Пол:
Не указан
Стаж:
1 год 3 месяца
Сообщений:
442

Движущая сила / Driving Force
«Get ready for one hell of a ride!»
Страна: США, Филиппины
Жанр: Фантастический боевик
Год выпуска: 1989
Продолжительность: 01:26:38
Перевод: Авторский (одноголосый закадровый) Василий Горчаков
Субтитры: нет
Оригинальная аудиодорожка: английский
Режиссер: Эндрю Проуз / Andrew Prowse
В ролях: Сэм Дж. Джонс, Кэтрин Бах, Дон Суэйзи, Стефани Мэйсон, Энсел Кук, Джералд Гордон, Рената Скотт,
Роберт Маркус, Билли Блэнкс, Зинаида Амадор
Описание: У Стива после смерти любимой женщины одна радость в жизни — дочка. Чтобы как-то выжить, он
занимается транспортировкой сломанных машин. Ему понадобилось немного времени, чтобы понять, что это
опасный бизнес. Он — живая мишень для Черного Рыцаря дорог и его людей. Стив принимает правила игры, где
главный приз — жизнь.
Доп. информация: Дорожка с В. Горчаковым синхронизирована и наложена ale_x2008 при помощи Adobe Audition, Sony Vegas и VirtualDubMod.
За оцифрованную с VHS дорожку благодарим - Fleh_808

Релиз
Сэмпл: https://yadi.sk/i/kAvzj2vzpEt7pA
Качество видео: DVDRip
Формат видео: AVI
Видео: XviD build 73, 704x528 (1.33:1), 25 fps, 2024 kbps avg, 0.22 bit/pixel
Аудио: AC3 Dolby Digital, 48000Hz 2/0 (L,R) ch (mono), 192 kbps avg (AVO)
Аудио 2: AC3 Dolby Digital, 48000Hz 2/0 (L,R) ch (mono), 192 kbps avg (Eng)

MediaInfo

Движущая сила (Driving Force) [by ale_x2008].avi
Format : AVI
Format/Info : Audio Video Interleave
File size : 1.47 GiB
Duration : 1 h 26 min
Overall bit rate : 2 423 kb/s
Movie name : Движущая сила (Driving Force) Eng
Director : DVDRip by ale_x2008
Genre : Action/Sci-Fi/Thriller
Writing application : VirtualDubMod 1.5.10.3 (build 2550/release)
Original source form/Name : Movie
Copyright : Edich2
Comment : RuTracker.org
Video
ID : 0
Format : MPEG-4 Visual
Format profile : Advanced Simple@L5
Format settings : BVOP1
Format settings, BVOP : 1
Format settings, QPel : No
Format settings, GMC : No warppoints
Format settings, Matrix : Default (MPEG)
Codec ID : XVID
Codec ID/Hint : XviD
Duration : 1 h 26 min
Bit rate : 2 025 kb/s
Width : 704 pixels
Height : 528 pixels
Display aspect ratio : 4:3
Frame rate : 25.000 FPS
Color space : YUV
Chroma subsampling : 4:2:0
Bit depth : 8 bits
Scan type : Progressive
Compression mode : Lossy
Bits/(Pixel*Frame) : 0.218
Stream size : 1.23 GiB (84%)
Writing library : XviD 73
Audio #1
ID : 1
Format : AC-3
Format/Info : Audio Coding 3
Codec ID : 2000
Duration : 1 h 26 min
Bit rate mode : Constant
Bit rate : 192 kb/s
Channel(s) : 2 channels
Channel positions : Front: L R
Sampling rate : 48.0 kHz
Frame rate : 31.250 FPS (1536 SPF)
Bit depth : 16 bits
Compression mode : Lossy
Stream size : 119 MiB (8%)
Alignment : Split accross interleaves
Interleave, duration : 40 ms (1.00 video frame)
Interleave, preload duratio : 500 ms
Service kind : Complete Main
Audio #2
ID : 2
Format : AC-3
Format/Info : Audio Coding 3
Codec ID : 2000
Duration : 1 h 26 min
Bit rate mode : Constant
Bit rate : 192 kb/s
Channel(s) : 2 channels
Channel positions : Front: L R
Sampling rate : 48.0 kHz
Frame rate : 31.250 FPS (1536 SPF)
Bit depth : 16 bits
Compression mode : Lossy
Stream size : 119 MiB (8%)
Alignment : Split accross interleaves
Interleave, duration : 40 ms (1.00 video frame)
Interleave, preload duratio : 500 ms
Service kind : Complete Main

Скриншоты


[opentorrent.pro].t4002.torrent 
Торрент: Зарегистрирован [ 2019-06-28 15:49 ] · 39AE747BD3B154F326D4471C0BFB89FF4C823443

Скачать .torrent

Скачать

15 KB

Статус: проверено
Скачан: 0 раз
Размер: 1,47 GB  ·  Тип торрента
terms.php
Профиль [ЛС]
Показать сообщения:    

Текущее время: 04-Июл 17:07

Часовой пояс: UTC ± 0



Вы не можете начинать темы
Вы не можете отвечать на сообщения
Вы не можете редактировать свои сообщения
Вы не можете удалять свои сообщения
Вы не можете голосовать в опросах
Вы не можете прикреплять файлы к сообщениям
Вы можете скачивать файлы