Статистика раздачи
Размер:  3,54 GB   |    Зарегистрирован:  1 год 1 месяц   |    Скачан:  0 раз
DL-List: Нет

Полного источника не было: Никогда

 
     
 
 

Гость ®

Пол:
Не указан

Дамбо | Dumbo«In 2019, a beloved tale will take you to new heights»- Год выхода: 2019
Страна: США
Жанр: фэнтези, семейный
Продолжительность: 01:51:56
Перевод: Профессиональный (полное дублирование) iTunes
Субтитры: Русские (Forced, full), английские (Full, SDH, SDH-Colored)
Оригинальная аудиодорожка: Есть-Режиссер:
Тим Бёртон / Tim Burton
-В ролях:
Колин Фаррелл | Colin Farrell
Майкл Китон | Michael Keaton
Дэнни ДеВито | Danny DeVito
Ева Грин | Eva Green

Алан Аркин, Нико Паркер, Финли Хоббинс, Рошан Сет, Ларс Айдингер, Деобиа Опарей-О фильме:Цирковой импресарио Макс Медичи назначает бывшую звезду цирка Холта Фэрриера и его детей Милли и Джо опекунами новорожденного слонёнка, чьи невероятно большие уши сразу становятся предметом для постоянных шуток и насмешек коллег Холта по цеху. Внезапно узнав, что Дамбо умеет летать, владелец цирка решает нажиться на необычных способностях слонёнка. К делу подключается энергичный предприниматель В. А. Вэндевер, который решает сделать из малыша Дамбо главную звезду своего нового грандиозного развлекательного предприятия «Сказочная страна».-
IMDb: 6.50 (30 204)
Sample-Качество: BDRip-AVC [Dumbo 2019 1080p Blu-ray Remux AVC Atmos - KRaLiMaRKo]
Формат: MKV
Видео: AVC 3690 kb/s 1088 x 588 (1.850) 23.976 fps
Аудио: 48 kHz, AC3 Dolby Digital, 3/2 (L,C,R,l,r) + LFE ch, ~384 kbps avg - iTunes Russia
Аудио: 2 AC-3 448 kb/s 6 channels, 48.0 kHz Eng

MediaInfo | Log

Log

x264 [info]: frame I:1660 Avg QP:13.91 size: 95920
x264 [info]: frame P:34307 Avg QP:15.96 size: 39678
x264 [info]: frame B:125068 Avg QP:18.02 size: 12615
x264 [info]: consecutive B-frames: 2.0% 2.4% 7.5% 21.1% 17.2% 40.3% 4.9% 1.2% 1.3% 0.7% 1.4%
x264 [info]: mb I I16..4: 14.0% 67.6% 18.4%
x264 [info]: mb P I16..4: 1.2% 16.3% 1.6% P16..4: 24.5% 31.9% 14.1% 2.8% 0.2% skip: 7.3%
x264 [info]: mb B I16..4: 0.1% 1.4% 0.1% B16..8: 32.4% 23.1% 5.2% direct: 5.7% skip:31.9% L0:44.7% L1:42.1% BI:13.2%
x264 [info]: 8x8 transform intra:82.1% inter:52.4%
x264 [info]: direct mvs spatial:99.9% temporal:0.1%
x264 [info]: coded y,uvDC,uvAC intra: 92.2% 89.4% 76.3% inter: 27.7% 22.1% 5.7%
x264 [info]: i16 v,h,dc,p: 30% 7% 16% 47%
x264 [info]: i8 v,h,dc,ddl,ddr,vr,hd,vl,hu: 9% 8% 12% 10% 13% 12% 12% 12% 13%
x264 [info]: i4 v,h,dc,ddl,ddr,vr,hd,vl,hu: 10% 7% 7% 9% 15% 14% 13% 11% 13%
x264 [info]: i8c dc,h,v,p: 47% 22% 18% 13%
x264 [info]: Weighted P-Frames: Y:5.1% UV:3.4%
x264 [info]: ref P L0: 46.5% 10.1% 17.4% 6.4% 5.5% 3.8% 3.9% 1.9% 1.8% 1.3% 1.4% 0.1% 0.0%
x264 [info]: ref B L0: 71.6% 11.8% 5.7% 3.0% 2.1% 1.7% 2.2% 0.9% 0.7% 0.2%
x264 [info]: ref B L1: 94.8% 5.2%
x264 [info]: kb/s:3690.20
x264 [total]: encoded 161035 frames, 10.97 fps, 3690.20 kb/s
Format : Matroska
Format version : Version 4
File size : 3.54 GiB
Duration : 1 h 51 min
Overall bit rate : 4 525 kb/s
Movie name : Dumbo (2019)[rutracker.org]
Encoded date : UTC 2019-06-28 06:27:39
Writing application : mkvmerge v34.0.0 ('Sight and Seen') 64-bit
Writing library : libebml v1.3.7 + libmatroska v1.5.0
Video
ID : 1
Format : AVC
Format/Info : Advanced Video Codec
Format profile : High@L4.1
Format settings : CABAC / 11 Ref Frames
Format settings, CABAC : Yes
Format settings, Reference frames : 11 frames
Codec ID : V_MPEG4/ISO/AVC
Duration : 1 h 51 min
Bit rate : 3 690 kb/s
Width : 1 088 pixels
Height : 588 pixels
Display aspect ratio : 1.85:1
Frame rate mode : Constant
Frame rate : 23.976 (24000/1001) FPS
Color space : YUV
Chroma subsampling : 4:2:0
Bit depth : 8 bits
Scan type : Progressive
Bits/(Pixel*Frame) : 0.241
Stream size : 2.89 GiB (82%)
Title : Dumbo (2019)[rutracker.org]
Writing library : x264 core 157 r2969 d4099dd
Encoding settings : cabac=1 / ref=11 / deblock=1:-3:-2 / analyse=0x3:0x133 / me=umh / subme=11 / psy=1 / psy_rd=1.00:0.05 / mixed_ref=1 / me_range=48 / chroma_me=1 / trellis=2 / 8x8dct=1 / cqm=0 / deadzone=21,11 / fast_pskip=0 / chroma_qp_offset=-3 / threads=12 / lookahead_threads=3 / sliced_threads=0 / nr=0 / decimate=1 / interlaced=0 / bluray_compat=0 / constrained_intra=0 / bframes=10 / b_pyramid=2 / b_adapt=2 / b_bias=0 / direct=3 / weightb=1 / open_gop=0 / weightp=2 / keyint=250 / keyint_min=23 / scenecut=40 / intra_refresh=0 / rc_lookahead=60 / rc=crf / mbtree=0 / crf=17.4 / qcomp=0.60 / qpmin=0 / qpmax=69 / qpstep=4 / vbv_maxrate=50000 / vbv_bufsize=62500 / crf_max=0.0 / nal_hrd=none / filler=0 / ip_ratio=1.40 / pb_ratio=1.30 / aq=3:0.90
Language : English
Default : Yes
Forced : No
Audio #1
ID : 2
Format : AC-3
Format/Info : Audio Coding 3
Commercial name : Dolby Digital
Codec ID : A_AC3
Duration : 1 h 51 min
Bit rate mode : Constant
Bit rate : 384 kb/s
Channel(s) : 6 channels
Channel layout : L R C LFE Ls Rs
Sampling rate : 48.0 kHz
Frame rate : 31.250 FPS (1536 SPF)
Bit depth : 16 bits
Compression mode : Lossy
Stream size : 307 MiB (8%)
Title : DUB (iTunes)
Language : Russian
Service kind : Complete Main
Default : Yes
Forced : No
Audio #2
ID : 3
Format : AC-3
Format/Info : Audio Coding 3
Commercial name : Dolby Digital
Codec ID : A_AC3
Duration : 1 h 51 min
Bit rate mode : Constant
Bit rate : 448 kb/s
Channel(s) : 6 channels
Channel layout : L R C LFE Ls Rs
Sampling rate : 48.0 kHz
Frame rate : 31.250 FPS (1536 SPF)
Bit depth : 16 bits
Compression mode : Lossy
Stream size : 359 MiB (10%)
Title : Original
Language : English
Service kind : Complete Main
Default : No
Forced : No
Text #1
ID : 4
Format : UTF-8
Codec ID : S_TEXT/UTF8
Codec ID/Info : UTF-8 Plain Text
Duration : 1 h 41 min
Bit rate : 1 b/s
Count of elements : 17
Stream size : 838 Bytes (0%)
Title : Forced
Language : Russian
Default : Yes
Forced : No
Text #2
ID : 5
Format : UTF-8
Codec ID : S_TEXT/UTF8
Codec ID/Info : UTF-8 Plain Text
Duration : 1 h 51 min
Bit rate : 57 b/s
Count of elements : 1172
Stream size : 47.2 KiB (0%)
Title : Full
Language : Russian
Default : No
Forced : No
Text #3
ID : 6
Format : UTF-8
Codec ID : S_TEXT/UTF8
Codec ID/Info : UTF-8 Plain Text
Duration : 1 h 41 min
Bit rate : 41 b/s
Count of elements : 1209
Stream size : 31.1 KiB (0%)
Title : Full
Language : English
Default : No
Forced : No
Text #4
ID : 7
Format : UTF-8
Codec ID : S_TEXT/UTF8
Codec ID/Info : UTF-8 Plain Text
Duration : 1 h 43 min
Bit rate : 51 b/s
Count of elements : 1565
Stream size : 39.4 KiB (0%)
Title : SDH
Language : English
Default : No
Forced : No
Text #5
ID : 8
Format : UTF-8
Codec ID : S_TEXT/UTF8
Codec ID/Info : UTF-8 Plain Text
Duration : 1 h 43 min
Bit rate : 75 b/s
Count of elements : 1565
Stream size : 56.9 KiB (0%)
Title : SDH-Colored
Language : English
Default : No
Forced : No
Menu
00:00:00.000 : :Chapter 01
00:06:40.483 : :Chapter 02
00:13:13.918 : :Chapter 03
00:19:54.735 : :Chapter 04
00:26:50.275 : :Chapter 05
00:36:02.744 : :Chapter 06
00:42:04.564 : :Chapter 07
00:49:29.425 : :Chapter 08
00:56:59.958 : :Chapter 09
01:04:10.597 : :Chapter 10
01:12:06.697 : :Chapter 11
01:18:26.410 : :Chapter 12
-
[opentorrent.pro].t4005.torrent 
Торрент: Зарегистрирован [ 2019-06-28 15:49 ] · 414CFBEEA118088111844C58B5CF02ED577B066A

Скачать .torrent

Скачать

18 KB

Статус: проверено
Скачан: 0 раз
Размер: 3,54 GB  ·  Тип торрента
terms.php
Показать сообщения:    

Текущее время: 08-Авг 18:03

Часовой пояс: UTC ± 0



Вы не можете начинать темы
Вы не можете отвечать на сообщения
Вы не можете редактировать свои сообщения
Вы не можете удалять свои сообщения
Вы не можете голосовать в опросах
Вы не можете прикреплять файлы к сообщениям
Вы можете скачивать файлы