Статистика раздачи
Размер:  92 MB   |    Зарегистрирован:  1 год   |    Скачан:  0 раз
DL-List: Нет

Полного источника не было: Никогда

 
     
 
 

Гость ®

Пол:
Не указан

Дворняга + дворняга
Страна: СССР (Узбекская республика)
Жанр: мультфильм
Продолжительность: 00:09:38
Год выпуска: 1989
Режиссёр: Дели Батырова
Описание: О приключениях двух бродячих собак. Состоит из нескольких сюжетов: "Забор", "Скала", "Конура", "Аппорт" и "Свобода".
Качество: WEBRip
Формат: AVI
Видео: 1195 kbps, 592х448 (4:3), 25.000 fps, MPEG-4 Visual (XviD)
Аудио: 128 kbps, 44.1 kHz, 2 channels, MPEG Audio (MP3)
Субтитры: отсутствуют

Подробные технические данные

General
Complete name : Дворняга и дворняга (1989).avi
Format : AVI
Format/Info : Audio Video Interleave
File size : 92.1 MiB
Duration : 9mn 38s
Overall bit rate : 1 335 Kbps
Writing library : VirtualDub build 35491/release
Video
ID : 0
Format : MPEG-4 Visual
Format profile : Advanced Simple@L5
Format settings, BVOP : 2
Format settings, QPel : No
Format settings, GMC : No warppoints
Format settings, Matrix : Default (H.263)
Codec ID : XVID
Codec ID/Hint : XviD
Duration : 9mn 38s
Bit rate : 1 195 Kbps
Width : 592 pixels
Height : 448 pixels
Display aspect ratio : 4:3
Frame rate : 25.000 fps
Color space : YUV
Chroma subsampling : 4:2:0
Bit depth : 8 bits
Scan type : Progressive
Compression mode : Lossy
Bits/(Pixel*Frame) : 0.180
Stream size : 82.4 MiB (89%)
Writing library : XviD 73
Audio
ID : 1
Format : MPEG Audio
Format version : Version 1
Format profile : Layer 3
Codec ID : 55
Codec ID/Hint : MP3
Duration : 9mn 38s
Bit rate mode : Constant
Bit rate : 128 Kbps
Channel(s) : 2 channels
Sampling rate : 44.1 KHz
Compression mode : Lossy
Stream size : 8.83 MiB (10%)
Alignment : Aligned on interleaves
Interleave, duration : 26 ms (0.65 video frame)
Interleave, preload duration : 522 ms

Скриншоты

[opentorrent.pro].t4012.torrent 
Торрент: Зарегистрирован [ 2019-06-29 16:16 ] · CFC1D8153DD272B836ED7AED27C80CB2E7B64557

Скачать .torrent

Скачать

15 KB

Статус: проверено
Скачан: 0 раз
Размер: 92 MB  ·  Тип торрента
terms.php
Показать сообщения:    

Текущее время: 02-Июл 08:14

Часовой пояс: UTC ± 0



Вы не можете начинать темы
Вы не можете отвечать на сообщения
Вы не можете редактировать свои сообщения
Вы не можете удалять свои сообщения
Вы не можете голосовать в опросах
Вы не можете прикреплять файлы к сообщениям
Вы можете скачивать файлы