Статистика раздачи
Размер:  131 MB   |    Зарегистрирован:  1 год 1 месяц   |    Скачан:  0 раз
DL-List: Нет

Полного источника не было: Никогда

 
     
 
 

Гость ®

Пол:
Не указан

Дороги, которые мы выбираем
Страна: Россия
Жанр: мультфильм
Продолжительность: 00:08:01
Год выпуска: 2013
Русские субтитры: нет
Режиссёр: Кирилл Блюменкранц
Описание: Экранизация одноимённой новеллы О.Генри, интерпретированная в стиле паропанк. Два бандита грабят поезд, перевозящий груз золота. Но теперь поезд охраняет отряд роботов, а бандиты летают на механических лошадях. Но Боливару, по-прежнему, не снести двоих...
Качество: WEBRip
Формат: AVI
Видео: 2084 kbps, 720х304 (2.35:1), 25.000 fps, MPEG-4 Visual (XviD)
Аудио: 192 kbps, 44.1 kHz, 2 channels, MPEG Audio (MP3)
Субтитры: отсутствуют

Подробные технические данные

General
Complete name : Дороги, которые мы выбираем (2013).avi
Format : AVI
Format/Info : Audio Video Interleave
File size : 131 MiB
Duration : 8mn 1s
Overall bit rate : 2 286 Kbps
Writing application : VirtualDubMod 1.5.10.2 (build 2540/release)
Writing library : VirtualDubMod build 2540/release
Video
ID : 0
Format : MPEG-4 Visual
Format profile : Advanced Simple@L5
Format settings, BVOP : 2
Format settings, QPel : No
Format settings, GMC : No warppoints
Format settings, Matrix : Default (H.263)
Codec ID : XVID
Codec ID/Hint : XviD
Duration : 8mn 1s
Bit rate : 2 084 Kbps
Width : 720 pixels
Height : 304 pixels
Display aspect ratio : 2.35:1
Frame rate : 25.000 fps
Color space : YUV
Chroma subsampling : 4:2:0
Bit depth : 8 bits
Scan type : Progressive
Compression mode : Lossy
Bits/(Pixel*Frame) : 0.381
Stream size : 120 MiB (91%)
Writing library : XviD 73
Audio
ID : 1
Format : MPEG Audio
Format version : Version 1
Format profile : Layer 3
Codec ID : 55
Codec ID/Hint : MP3
Duration : 8mn 1s
Bit rate mode : Constant
Bit rate : 192 Kbps
Channel(s) : 2 channels
Sampling rate : 44.1 KHz
Compression mode : Lossy
Stream size : 11.0 MiB (8%)
Alignment : Split accross interleaves
Interleave, duration : 40 ms (1.00 video frame)
Interleave, preload duration : 500 ms

Скриншоты

[opentorrent.pro].t4015.torrent 
Торрент: Зарегистрирован [ 2019-06-29 16:16 ] · 8F95904AB9AFC6204068A5EB60469289B6D33500

Скачать .torrent

Скачать

11 KB

Статус: проверено
Скачан: 0 раз
Размер: 131 MB  ·  Тип торрента
terms.php
Показать сообщения:    

Текущее время: 05-Авг 02:06

Часовой пояс: UTC ± 0



Вы не можете начинать темы
Вы не можете отвечать на сообщения
Вы не можете редактировать свои сообщения
Вы не можете удалять свои сообщения
Вы не можете голосовать в опросах
Вы не можете прикреплять файлы к сообщениям
Вы можете скачивать файлы