Статистика раздачи
Размер:  377 MB   |    Зарегистрирован:  1 год   |    Скачан:  0 раз
DL-List: Нет

Полного источника не было: Никогда

 
     
 
 

Гость ®

Пол:
Не указан

Контакт-Страна: СССР
Студия: Союзмультфильм
Жанр: мультфильм, фантастика
Год выпуска: 1978
Продолжительность: 00:09:46-Режиссер: Владимир Тарасов-Описание: Мультфильм рассказывает о встрече человека и инопланетянина, прилетевшего на Землю и пытающегося её изучить посредством имитации увиденных вещей — так же, как мультфильм метафорично показывает нам всю не замечаемую нами красоту окружающего мира.
В фильме использована музыка Нино Роты «Speak Softly Love (Love Theme From The Godfather)» (мелодия из фильма "Крёстный отец"), аранжировка Поля Мориа.-Релиз: -Семпл: http://sendfile.su/1503097-Тип релиза: DVDRip-AVC
Контейнер: MKV
Видео: 718x576 (4:3) @ 766x576, 25.000 fps, AVC, ~4497 Kbps, 0.435 bits/pixel
Аудио 1: Русский, 48.0 KHz, AC3, 6 ch, 448 Kbps - 5.1-mix | "Крупный план"
Аудио 2: Русский, 48.0 KHz, AC3, 1 ch, 448 Kbps - Mono mix | "Крупный план"

MediaInfo

General
Unique ID : 66530087650001269316373068159732660736 (0x320D3A92B02EABE33A394533C06FBA00)
Complete name : Контакт.1978.DVDRip-RUTRACKER.mkv
Format : Matroska
Format version : Version 4
File size : 377 MiB
Duration : 9 min 46 s
Overall bit rate : 5 392 kb/s
Encoded date : UTC 2019-06-28 18:23:58
Writing application : mkvmerge v35.0.0 ('All The Love In The World') 64-bit
Writing library : libebml v1.3.9 + libmatroska v1.5.2
Video
ID : 1
Format : AVC
Format/Info : Advanced Video Codec
Format profile : High@L4.1
Format settings : CABAC / 16 Ref Frames
Format settings, CABAC : Yes
Format settings, Reference frames : 16 frames
Codec ID : V_MPEG4/ISO/AVC
Duration : 9 min 46 s
Bit rate : 4 497 kb/s
Width : 718 pixels
Height : 576 pixels
Display aspect ratio : 4:3
Frame rate mode : Constant
Frame rate : 25.000 FPS
Color space : YUV
Chroma subsampling : 4:2:0
Bit depth : 8 bits
Scan type : Progressive
Bits/(Pixel*Frame) : 0.435
Stream size : 314 MiB (83%)
Writing library : x264 core 152 r2851kMod ba24899
Encoding settings : cabac=1 / ref=16 / deblock=1:-3:-3 / analyse=0x3:0x133 / me=umh / subme=11 / psy=1 / fade_compensate=0.00 / psy_rd=1.00:0.00 / mixed_ref=1 / me_range=48 / chroma_me=1 / trellis=2 / 8x8dct=1 / cqm=0 / deadzone=21,11 / fast_pskip=0 / chroma_qp_offset=-2 / threads=12 / lookahead_threads=3 / sliced_threads=0 / nr=0 / decimate=1 / interlaced=0 / bluray_compat=0 / constrained_intra=0 / bframes=16 / b_pyramid=2 / b_adapt=2 / b_bias=0 / direct=3 / weightb=1 / open_gop=0 / weightp=0 / keyint=250 / keyint_min=25 / scenecut=40 / intra_refresh=0 / rc_lookahead=70 / rc=crf / mbtree=0 / crf=18.7000 / qcomp=0.60 / qpmin=0 / qpmax=69 / qpstep=4 / vbv_maxrate=50000 / vbv_bufsize=62500 / crf_max=0.0 / nal_hrd=none / filler=0 / ip_ratio=1.40 / pb_ratio=1.30 / aq=3:0.75
Language : Russian
Default : Yes
Forced : No
Color range : Limited
Color primaries : BT.601 PAL
Transfer characteristics : BT.470 System B/G
Matrix coefficients : BT.470 System B/G
Audio #1
ID : 2
Format : AC-3
Format/Info : Audio Coding 3
Commercial name : Dolby Digital
Codec ID : A_AC3
Duration : 9 min 43 s
Bit rate mode : Constant
Bit rate : 448 kb/s
Channel(s) : 6 channels
Channel layout : L R C LFE Ls Rs
Sampling rate : 48.0 kHz
Frame rate : 31.250 FPS (1536 SPF)
Bit depth : 16 bits
Compression mode : Lossy
Stream size : 31.2 MiB (8%)
Title : 5.1-mix | "Крупный план"
Language : Russian
Service kind : Complete Main
Default : Yes
Forced : No
Audio #2
ID : 3
Format : AC-3
Format/Info : Audio Coding 3
Commercial name : Dolby Digital
Codec ID : A_AC3
Duration : 9 min 43 s
Bit rate mode : Constant
Bit rate : 448 kb/s
Channel(s) : 1 channel
Channel layout : C
Sampling rate : 48.0 kHz
Frame rate : 31.250 FPS (1536 SPF)
Bit depth : 16 bits
Compression mode : Lossy
Stream size : 31.2 MiB (8%)
Title : Mono mix | "Крупный план"
Language : Russian
Service kind : Complete Main
Default : No
Forced : No

Скриншоты

Release Info

x264.log

x264 [info]: 718x576p 16:15 @ 25/1 fps (cfr)
x264 [info]: using SAR=16/15
x264 [info]: using cpu capabilities: MMX2 SSE2Fast SSSE3 SSE4.2 AVX
x264 [info]: profile High, level 4.1
x264 [info]: cabac=1 ref=16 deblock=1:-3:-3 analyse=0x3:0x133 me=umh subme=11 psy=1 fade_compensate=0.00 psy_rd=1.00:0.00 mixed_ref=1 me_range=48 chroma_me=1 trellis=2 8x8dct=1 cqm=0 deadzone=21,11 fast_pskip=0 chroma_qp_offset=-2 threads=12 lookahead_threads=3 sliced_threads=0 nr=0 decimate=1 interlaced=0 bluray_compat=0 constrained_intra=0 bframes=16 b_pyramid=2 b_adapt=2 b_bias=0 direct=3 weightb=1 open_gop=0 weightp=0 keyint=250 keyint_min=25 scenecut=40 intra_refresh=0 rc_lookahead=70 rc=crf mbtree=0 crf=18.7000 qcomp=0.60 qpmin=0 qpmax=69 qpstep=4 vbv_maxrate=50000 vbv_bufsize=62500 crf_max=0.0 nal_hrd=none filler=0 ip_ratio=1.40 pb_ratio=1.30 aq=3:0.75
x264 [info]: frame I:82 Avg QP:21.55 size: 56922
x264 [info]: frame P:3358 Avg QP:23.12 size: 37072
x264 [info]: frame B:11215 Avg QP:25.20 size: 17868
x264 [info]: consecutive B-frames: 2.4% 3.0% 14.5% 16.2% 12.4% 44.0% 3.7% 1.3% 0.9% 0.1% 0.2% 0.3% 0.3% 0.0% 0.0% 0.0% 0.8%
x264 [info]: mb I I16..4: 3.5% 86.7% 9.8%
x264 [info]: mb P I16..4: 0.6% 39.6% 1.0% P16..4: 22.1% 23.2% 10.8% 0.7% 0.0% skip: 2.0%
x264 [info]: mb B I16..4: 0.1% 8.1% 0.1% B16..8: 40.6% 21.3% 4.3% direct:11.8% skip:13.7% L0:38.7% L1:32.5% BI:28.7%
x264 [info]: 8x8 transform intra:96.4% inter:82.1%
x264 [info]: direct mvs spatial:99.8% temporal:0.2%
x264 [info]: coded y,uvDC,uvAC intra: 95.8% 90.3% 62.9% inter: 58.1% 49.0% 13.2%
x264 [info]: i16 v,h,dc,p: 41% 18% 21% 20%
x264 [info]: i8 v,h,dc,ddl,ddr,vr,hd,vl,hu: 8% 7% 20% 9% 10% 10% 10% 11% 14%
x264 [info]: i4 v,h,dc,ddl,ddr,vr,hd,vl,hu: 13% 8% 9% 9% 15% 14% 12% 10% 10%
x264 [info]: i8c dc,h,v,p: 37% 27% 20% 15%
x264 [info]: ref P L0: 45.9% 16.5% 7.7% 5.9% 3.9% 4.1% 2.9% 2.4% 1.8% 1.9% 1.5% 1.6% 1.3% 1.5% 1.2% 0.0%
x264 [info]: ref B L0: 71.8% 11.0% 4.8% 2.7% 2.0% 1.7% 1.4% 1.0% 0.8% 0.7% 0.6% 0.6% 0.5% 0.4% 0.2%
x264 [info]: ref B L1: 94.8% 5.2%
x264 [info]: kb/s:4497.35
x264 [info]: encoded 14655 frames, 8.15 fps, 4497.35 kb/s, duration 0:29:57.83
Source | xfiles | Azyan | Skazhutin-


[opentorrent.pro].t4019.torrent 
Торрент: Зарегистрирован [ 2019-06-29 16:16 ] · 4ED9360634BD4732C8AB1F2E698F7A59FE2DBC8A

Скачать .torrent

Скачать

15 KB

Статус: проверено
Скачан: 0 раз
Размер: 377 MB  ·  Тип торрента
terms.php
Показать сообщения:    

Текущее время: 05-Июл 19:31

Часовой пояс: UTC ± 0



Вы не можете начинать темы
Вы не можете отвечать на сообщения
Вы не можете редактировать свои сообщения
Вы не можете удалять свои сообщения
Вы не можете голосовать в опросах
Вы не можете прикреплять файлы к сообщениям
Вы можете скачивать файлы