Статистика раздачи
Размер:  1,46 GB   |    Зарегистрирован:  1 год   |    Скачан:  0 раз
DL-List: Нет

Полного источника не было: Никогда

 
     
 
 

Гость ®

Пол:
Не указан

72 часа
Жанр: военный, драма
Год выпуска: 2015
Продолжительность: 01:39:39
Режиссёр: Кира Ангелина
В ролях: Елизавета Арзамасова, Дмитрий Лабуш, Ирина Розанова, Александр Зельский, Алексей Шевченков, Анатолий Гущин, Татьяна Лютаева, Артур Псакин, Дмитрий Подадаев, Фёдор Леонов, Анастасия Королькова, Николай Сахаров, Александр Касаткин, Татьяна Чепелевич, Наталья Третьякова

Описание: В самом начале Великой Отечественной войны крохотный городок Ставрово оказывается в эпицентре большой истории. Его расположение, близость линии фронта, железная дорога, перекресток нескольких дорог привели в город крупный гарнизон немцев. Но в городе действует подполье, состоящее, в основном, из вчерашних школьников. Это история противостояния двух молодых людей, двух жизненных позиций — комсомольца Алексея и предателя Дмитрия. Оба молоды, оба читали одни и те же книжки в детстве, учились в одной школе, любили одну девушку. Но первый, не задумываясь, отдал жизнь за то, что считал священным — за Родину, а второй самозабвенно мучил и убивал своих же соотечественников, соседей, знакомых, бывших одноклассников.

Кинопоиск
Sample
Качество видео: HDTVRip
Формат видео: AVI
Видео: 720x304 (2.37:1), 25 fps, XviD build 73 ~1898 kbps avg, 0.35 bit/pixel
Аудио: 48 kHz, AC3 Dolby Digital, 2/0 (L,R) ch, ~192 kbps

MediaInfo

General
Complete name : D:\72 chasa.HDTVRip.avi
Format : AVI
Format/Info : Audio Video Interleave
File size : 1.46 GiB
Duration : 1 h 39 min
Overall bit rate : 2 101 kb/s
Writing application : VirtualDubMod 1.5.10.3 | www.virtualdub-fr.org || (build 2550/release)
Writing library : VirtualDubMod build 2550/release
Video
ID : 0
Format : MPEG-4 Visual
Format profile : Advanced Simple@L5
Format settings : BVOP1
Format settings, BVOP : 1
Format settings, QPel : No
Format settings, GMC : No warppoints
Format settings, Matrix : Default (MPEG)
Codec ID : XVID
Codec ID/Hint : XviD
Duration : 1 h 39 min
Bit rate : 1 899 kb/s
Width : 720 pixels
Height : 304 pixels
Display aspect ratio : 2.35:1
Frame rate : 25.000 FPS
Color space : YUV
Chroma subsampling : 4:2:0
Bit depth : 8 bits
Scan type : Progressive
Compression mode : Lossy
Bits/(Pixel*Frame) : 0.347
Stream size : 1.32 GiB (90%)
Writing library : XviD 73
Audio
ID : 1
Format : AC-3
Format/Info : Audio Coding 3
Codec ID : 2000
Duration : 1 h 39 min
Bit rate mode : Constant
Bit rate : 192 kb/s
Channel(s) : 2 channels
Channel positions : Front: L R
Sampling rate : 48.0 kHz
Frame rate : 31.250 FPS (1536 SPF)
Bit depth : 16 bits
Compression mode : Lossy
Stream size : 137 MiB (9%)
Alignment : Split accross interleaves
Interleave, duration : 40 ms (1.00 video frame)
Interleave, preload duratio : 500 ms
Service kind : Complete Main

Скриншоты



[opentorrent.pro].t4028.torrent 
Торрент: Зарегистрирован [ 2019-06-30 16:43 ] · EF1C1DF3977B132E2067906119E0F5788396CBF9

Скачать .torrent

Скачать

15 KB

Статус: проверено
Скачан: 0 раз
Размер: 1,46 GB  ·  Тип торрента
terms.php
Показать сообщения:    

Текущее время: 09-Июл 11:09

Часовой пояс: UTC ± 0



Вы не можете начинать темы
Вы не можете отвечать на сообщения
Вы не можете редактировать свои сообщения
Вы не можете удалять свои сообщения
Вы не можете голосовать в опросах
Вы не можете прикреплять файлы к сообщениям
Вы можете скачивать файлы