Статистика раздачи
Размер:  1,45 GB   |    Зарегистрирован:  1 год   |    Скачан:  0 раз
DL-List: Нет
Сидов:  21  [  0 KB/s  ]  
 
     
 
 

Гость ®

Пол:
Не указан

72 часа
Страна: Россия
Жанр: военный, драма
Год выпуска: 2015
Продолжительность: 01:39:38
Перевод: Не требуется
Субтитры: нет
Оригинальная аудиодорожка: русский
Режиссер: Кира Ангелина
В ролях: Ирина Розанова, Алексей Шевченков, Митя Лабуш, Анатолий Гущин, Лиза Арзамасова, Татьяна Лютаева, Александр Зельский, Ирина Московская, Анастасия Королькова, Светлана Колпакова, Артур Псакин, Вячеслав Василюк
Описание: В самом начале Великой Отечественной войны крохотный городок Ставрово оказывается в эпицентре большой истории. Его расположение, близость линии фронта, железная дорога, перекресток нескольких дорог привели в город крупный гарнизон немцев. Но в городе действует подполье, состоящее, в основном, из вчерашних школьников. Это история противостояния двух молодых людей, двух жизненных позиций - комсомольца Алексея и предателя Дмитрия. Оба молоды, оба читали одни и те же книжки в детстве, учились в одной школе, любили одну девушку. Но первый, не задумываясь, отдал жизнь за то, что считал священным - за Родину, а второй самозабвенно мучил и убивал своих же соотечественников, соседей, знакомых, бывших одноклассников.

Автор рипа: stalkerok
Сэмпл
Качество видео: HDTVRip-AVC | 72 chasa.HDTV(1080i).GeneralFilm
Формат видео: MKV
Видео кодек: AVC
Аудио кодек: AC3
Видео: AVC, 1894 Кбит/сек, 1140x482 (2.35:1), 25 кадр/сек
Аудио: AC3, 192 Кбит/сек, 48 КГц, 2.0 - русский

x264/MediaInfo

---[Information] [23.06.2019 16:11:04] x264 [info]: frame I:939 Avg QP:15.18 size: 59869
---[Information] [23.06.2019 16:11:04] x264 [info]: frame P:39704 Avg QP:18.54 size: 20442
---[Information] [23.06.2019 16:11:04] x264 [info]: frame B:108830 Avg QP:20.45 size: 5031
General
Unique ID : 105195795404831808684951188210015548854 (0x4F23F926374BBFD8F1E8F14B93B435B6)
Complete name : M:\temp\72 chasa\72.chasa.2015.HDTVRip.x264.Rus.stalkerok.New-Team.mkv
Format : Matroska
Format version : Version 4
File size : 1.45 GiB
Duration : 1 h 39 min
Overall bit rate : 2 088 kb/s
Movie name : 72 часа (2015) | Rip by stalkerok
Encoded date : UTC 2019-06-23 13:30:01
Writing application : mkvmerge v33.1.0 ('Primrose') 64-bit
Writing library : libebml v1.3.7 + libmatroska v1.5.0
Video
ID : 1
Format : AVC
Format/Info : Advanced Video Codec
Format profile : High@L4.1
Format settings : CABAC / 12 Ref Frames
Format settings, CABAC : Yes
Format settings, RefFrames : 12 frames
Codec ID : V_MPEG4/ISO/AVC
Duration : 1 h 39 min
Bit rate : 1 894 kb/s
Width : 1 140 pixels
Height : 482 pixels
Display aspect ratio : 2.35:1
Frame rate mode : Constant
Frame rate : 25.000 FPS
Color space : YUV
Chroma subsampling : 4:2:0
Bit depth : 8 bits
Scan type : Progressive
Bits/(Pixel*Frame) : 0.138
Stream size : 1.32 GiB (91%)
Title : 72 часа (2015) | Rip by stalkerok
Writing library : x264 core 157 r2969 d4099dd
Encoding settings : cabac=1 / ref=12 / deblock=1:-3:-2 / analyse=0x3:0x133 / me=umh / subme=11 / psy=1 / psy_rd=1.00:0.00 / mixed_ref=1 / me_range=32 / chroma_me=1 / trellis=2 / 8x8dct=1 / cqm=0 / deadzone=21,11 / fast_pskip=0 / chroma_qp_offset=-2 / threads=12 / lookahead_threads=3 / sliced_threads=0 / nr=0 / decimate=0 / interlaced=0 / bluray_compat=0 / constrained_intra=0 / bframes=15 / b_pyramid=2 / b_adapt=2 / b_bias=0 / direct=3 / weightb=1 / open_gop=0 / weightp=2 / keyint=250 / keyint_min=25 / scenecut=40 / intra_refresh=0 / rc_lookahead=60 / rc=2pass / mbtree=0 / bitrate=1894 / ratetol=1.0 / qcomp=0.65 / qpmin=0 / qpmax=69 / qpstep=4 / cplxblur=20.0 / qblur=0.5 / vbv_maxrate=50000 / vbv_bufsize=62500 / nal_hrd=none / filler=0 / ip_ratio=1.40 / pb_ratio=1.30 / aq=3:0.80
Default : Yes
Forced : No
Audio
ID : 2
Format : AC-3
Format/Info : Audio Coding 3
Commercial name : Dolby Digital
Codec ID : A_AC3
Duration : 1 h 39 min
Bit rate mode : Constant
Bit rate : 192 kb/s
Channel(s) : 2 channels
Channel layout : L R
Sampling rate : 48.0 kHz
Frame rate : 31.250 FPS (1536 SPF)
Bit depth : 16 bits
Compression mode : Lossy
Stream size : 137 MiB (9%)
Language : Russian
Service kind : Complete Main
Default : Yes
Forced : No

Скриншоты

[opentorrent.pro].t4029.torrent 
Торрент: Зарегистрирован [ 2019-06-30 16:43 ] · 3DBCA0985E72EAE52F6D984A8A3D37BA4D46B8AB

Скачать .torrent

Скачать

15 KB

Статус: проверено
Скачан: 0 раз
Размер: 1,45 GB  ·  Тип торрента
terms.php
Показать сообщения:    

Текущее время: 13-Июл 10:52

Часовой пояс: UTC ± 0



Вы не можете начинать темы
Вы не можете отвечать на сообщения
Вы не можете редактировать свои сообщения
Вы не можете удалять свои сообщения
Вы не можете голосовать в опросах
Вы не можете прикреплять файлы к сообщениям
Вы можете скачивать файлы