Статистика раздачи
Размер:  744 MB   |    Зарегистрирован:  1 год   |    Скачан:  0 раз
DL-List: Нет
Сидов:  3  [  0 KB/s  ]  
 
     
 
 

Гость ®

Пол:
Не указан

72 часа
Страна: Россия
Жанр: военный, драма
Год выпуска: 2015
Продолжительность: 01:39:38
Субтитры: нет
Режиссер: Кира Ангелина
В ролях: Ирина Розанова, Алексей Шевченков, Митя Лабуш, Анатолий Гущин, Лиза Арзамасова, Татьяна Лютаева, Александр Зельский, Ирина Московская, Анастасия Королькова, Светлана Колпакова, Артур Псакин, Вячеслав Василюк
Описание: В самом начале Великой Отечественной войны крохотный городок Ставрово оказывается в эпицентре большой истории. Его расположение, близость линии фронта, железная дорога, перекресток нескольких дорог привели в город крупный гарнизон немцев. Но в городе действует подполье, состоящее, в основном, из вчерашних школьников. Это история противостояния двух молодых людей, двух жизненных позиций - комсомольца Алексея и предателя Дмитрия. Оба молоды, оба читали одни и те же книжки в детстве, учились в одной школе, любили одну девушку. Но первый, не задумываясь, отдал жизнь за то, что считал священным - за Родину, а второй самозабвенно мучил и убивал своих же соотечественников, соседей, знакомых, бывших одноклассников.

Автор рипа: stalkerok
Сэмпл
Качество видео: HDTVRip-AVC | 72 chasa.HDTV(1080i).GeneralFilm
Формат видео: MKV
Видео кодек: AVC
Аудио кодек: AAC
Видео: AVC, 978 Кбит/сек, 880x372 (2.35:1), 25 кадр/сек
Аудио: AAC, 64 Кбит/сек, 48 КГц, 2.0 - русский

x264/MediaInfo

---[Information] [23.06.2019 20:13:37] x264 [info]: frame I:953 Avg QP:16.49 size: 36780
---[Information] [23.06.2019 20:13:37] x264 [info]: frame P:38731 Avg QP:20.03 size: 10609
---[Information] [23.06.2019 20:13:37] x264 [info]: frame B:109789 Avg QP:22.01 size: 2595
General
Unique ID : 154834346119876236517830564159421639309 (0x747C02A707E6BAA715469B2F61F36A8D)
Complete name : M:\temp\72 chasa\72.chasa.2015.HDTVRip.x264.Rus.stalkerok.New-Team..mkv
Format : Matroska
Format version : Version 4
File size : 744 MiB
Duration : 1 h 39 min
Overall bit rate : 1 044 kb/s
Movie name : 72 часа (2015) | Rip by stalkerok
Encoded date : UTC 2019-06-23 17:59:46
Writing application : mkvmerge v33.1.0 ('Primrose') 64-bit
Writing library : libebml v1.3.7 + libmatroska v1.5.0
Video
ID : 1
Format : AVC
Format/Info : Advanced Video Codec
Format profile : High@L4.1
Format settings : CABAC / 12 Ref Frames
Format settings, CABAC : Yes
Format settings, RefFrames : 12 frames
Codec ID : V_MPEG4/ISO/AVC
Duration : 1 h 39 min
Bit rate : 978 kb/s
Width : 880 pixels
Height : 372 pixels
Display aspect ratio : 2.35:1
Frame rate mode : Constant
Frame rate : 25.000 FPS
Color space : YUV
Chroma subsampling : 4:2:0
Bit depth : 8 bits
Scan type : Progressive
Bits/(Pixel*Frame) : 0.120
Stream size : 697 MiB (94%)
Title : 72 часа (2015) | Rip by stalkerok
Writing library : x264 core 157 r2969 d4099dd
Encoding settings : cabac=1 / ref=12 / deblock=1:-2:-1 / analyse=0x3:0x133 / me=umh / subme=11 / psy=1 / psy_rd=1.00:0.00 / mixed_ref=1 / me_range=32 / chroma_me=1 / trellis=2 / 8x8dct=1 / cqm=0 / deadzone=21,11 / fast_pskip=0 / chroma_qp_offset=-2 / threads=12 / lookahead_threads=2 / sliced_threads=0 / nr=0 / decimate=0 / interlaced=0 / bluray_compat=0 / constrained_intra=0 / bframes=16 / b_pyramid=2 / b_adapt=2 / b_bias=0 / direct=3 / weightb=1 / open_gop=0 / weightp=2 / keyint=250 / keyint_min=25 / scenecut=40 / intra_refresh=0 / rc_lookahead=60 / rc=2pass / mbtree=0 / bitrate=978 / ratetol=1.0 / qcomp=0.65 / qpmin=0 / qpmax=69 / qpstep=4 / cplxblur=20.0 / qblur=0.5 / vbv_maxrate=50000 / vbv_bufsize=62500 / nal_hrd=none / filler=0 / ip_ratio=1.40 / pb_ratio=1.30 / aq=3:0.90
Default : Yes
Forced : No
Audio
ID : 2
Format : AAC LC SBR
Format/Info : Advanced Audio Codec Low Complexity with Spectral Band Replication
Commercial name : HE-AAC
Format settings : Explicit
Codec ID : A_AAC-2
Duration : 1 h 39 min
Bit rate : 64.0 kb/s
Channel(s) : 2 channels
Channel layout : L R
Sampling rate : 48.0 kHz
Frame rate : 23.438 FPS (2048 SPF)
Compression mode : Lossy
Delay relative to video : 31 ms
Stream size : 45.6 MiB (6%)
Language : Russian
Default : Yes
Forced : No

Скриншоты

[opentorrent.pro].t4030.torrent 
Торрент: Зарегистрирован [ 2019-06-30 16:43 ] · 24AC4DC22EF1455993C3475795EDD5166F899711

Скачать .torrent

Скачать

15 KB

Статус: проверено
Скачан: 0 раз
Размер: 744 MB  ·  Тип торрента
terms.php
Показать сообщения:    

Текущее время: 16-Июл 13:13

Часовой пояс: UTC ± 0



Вы не можете начинать темы
Вы не можете отвечать на сообщения
Вы не можете редактировать свои сообщения
Вы не можете удалять свои сообщения
Вы не можете голосовать в опросах
Вы не можете прикреплять файлы к сообщениям
Вы можете скачивать файлы