Статистика раздачи
Размер:  2,16 GB   |    Зарегистрирован:  1 год   |    Скачан:  0 раз
DL-List: Нет
Сидов:  2  [  0 KB/s  ]  
 
     
 
 

serzh ®

Пол:
Не указан
Стаж:
1 год 3 месяца
Сообщений:
442

Эммануэль / EmmanuelleСтрана: Франция
Жанр: мелодрама
Год выпуска: 1974
Продолжительность: 01:34:13
Перевод 1: Одноголосый закадровый Неизвестного с древней кассеты
Перевод 2: Авторский (одноголосый закадровый) Леонида Володарского
Субтитры: нет
Оригинальная аудиодорожка: французский
Режиссер: Жюст Жакен /Just Jaekin/
В ролях: Сильвия Кристель /Sylvia Kristel/, Ален Кюни /Alain Cuny/, Марика Грин /Marika Green/, Даниэль Сарки /Daniel Sarky/, Жанна Коллетен /Jeanne Colletin/, Кристин Буассон /Christine Boisson/, Габриэль Бриан /Gabriel Briand/
Рецензия Михаила Иванова: Первый фильм о жрице любви Эмманюэль (Кристель), пожалуй, самый популярный и нашумевший в нашей стране, ставший символом эротики с появлением видео в бывшем СССР. Поставлен по роману Эмманюэль Арсан. Сюжет служит канвой для описания сексуальных похождений героини в Юго-Восточной Азии. Муж Эмманюэль, работающий в посольстве, поощряет в ней стремление к раскрепощенности в сексе, благо весь дипломатический корпус, особенно женщины, изнывают от скуки. За ее воспитание берется пожилой уже специалист. Эмманюэль делает большие успехи в искусстве любви. Знаменитая теперь музыка из фильма написана композитором Пьером Башле.
Доп. информация: Роберт Фрипп из Багрового Короля обнаружил, что мелодия, сопровождающая эротические сцены в фильме суть вариация на их композицию из альбома Язычки жаворонков в заливном 1973 года. После чего подал в суд и свои права отстоял.
исходник от Lt.Aldo Raine; Володарский из раздачи edich2/team_6strun; Неизвестного оцифровал и подготовил karlll
Качество видео: BDRip-AVC ~СЭМПЛ~
Формат видео: MKV
Видео: MPEG4 Video (H264) 1152x704 24fps 2710Kbps
Аудио 1: Dolby AC3 48KHz 2ch 192Kbps = Н
Аудио 2: Dolby AC3 48KHz 2ch 192Kbps = В
Аудио 3: Dolby AC3 48KHz 2ch 192Kbps = Ф

Цитата:
ФИЛЬМ ВПЕРВЫЕ НА ТРЕКЕРЕ С ЭТИМ НЕИЗВЕСТНЫМ ПЕРЕВОДЧИКОМ

MediaInfo

Format : Matroska
Format version : Version 2
File size : 2.16 GiB
Duration : 1 h 34 min
Overall bit rate : 3 287 kb/s
Movie name : EMMANUELLE_1974_BDRIP_KBC
Encoded date : UTC 2019-06-28 15:23:53
Writing application : mkvmerge v6.9.1 ('Blue Panther') 32bit built on Apr 18 2014 18:15:44
Writing library : libebml v1.3.0 + libmatroska v1.4.1
Video
ID : 1
Format : AVC
Format/Info : Advanced Video Codec
Format profile : High@L3.1
Format settings : CABAC / 7 Ref Frames
Format settings, CABAC : Yes
Format settings, RefFrames : 7 frames
Codec ID : V_MPEG4/ISO/AVC
Duration : 1 h 34 min
Bit rate : 2 710 kb/s
Width : 1 152 pixels
Height : 704 pixels
Display aspect ratio : 16:10
Frame rate mode : Constant
Frame rate : 24.000 FPS
Color space : YUV
Chroma subsampling : 4:2:0
Bit depth : 8 bits
Scan type : Progressive
Bits/(Pixel*Frame) : 0.139
Stream size : 1.74 GiB (80%)
Title : Emmanuelle_1974
Writing library : x264 core 152 r2851kMod ba24899
Encoding settings : cabac=1 / ref=7 / deblock=1:-1:-1 / analyse=0x3:0x113 / me=umh / subme=9 / psy=1 / fade_compensate=0.00 / psy_rd=1.00:0.20 / mixed_ref=1 / me_range=24 / chroma_me=1 / trellis=2 / 8x8dct=1 / cqm=0 / deadzone=21,11 / fast_pskip=0 / chroma_qp_offset=-3 / threads=6 / lookahead_threads=1 / sliced_threads=0 / nr=0 / decimate=0 / interlaced=0 / bluray_compat=0 / constrained_intra=0 / bframes=7 / b_pyramid=2 / b_adapt=2 / b_bias=0 / direct=3 / weightb=1 / open_gop=0 / weightp=2 / keyint=250 / keyint_min=23 / scenecut=40 / intra_refresh=0 / rc_lookahead=50 / rc=2pass / mbtree=1 / bitrate=2710 / ratetol=1.0 / qcomp=0.60 / qpmin=0 / qpmax=69 / qpstep=4 / cplxblur=20.0 / qblur=0.5 / vbv_maxrate=14000 / vbv_bufsize=14000 / nal_hrd=none / filler=0 / ip_ratio=1.40 / aq=1:1.00
Language : French
Default : Yes
Forced : No
Audio #1
ID : 2
Format : AC-3
Format/Info : Audio Coding 3
Commercial name : Dolby Digital
Codec ID : A_AC3
Duration : 1 h 34 min
Bit rate mode : Constant
Bit rate : 192 kb/s
Channel(s) : 2 channels
Channel layout : L R
Sampling rate : 48.0 kHz
Frame rate : 31.250 FPS (1536 SPF)
Bit depth : 16 bits
Compression mode : Lossy
Stream size : 129 MiB (6%)
Title : Неизвестный
Language : Russian
Service kind : Complete Main
Default : Yes
Forced : No
Audio #2
ID : 3
Format : AC-3
Format/Info : Audio Coding 3
Commercial name : Dolby Digital
Codec ID : A_AC3
Duration : 1 h 34 min
Bit rate mode : Constant
Bit rate : 192 kb/s
Channel(s) : 2 channels
Channel layout : L R
Sampling rate : 48.0 kHz
Frame rate : 31.250 FPS (1536 SPF)
Bit depth : 16 bits
Compression mode : Lossy
Stream size : 129 MiB (6%)
Title : Володарский
Language : Russian
Service kind : Complete Main
Default : No
Forced : No
Audio #3
ID : 4
Format : AC-3
Format/Info : Audio Coding 3
Commercial name : Dolby Digital
Codec ID : A_AC3
Duration : 1 h 34 min
Bit rate mode : Constant
Bit rate : 192 kb/s
Channel(s) : 2 channels
Channel layout : L R
Sampling rate : 48.0 kHz
Frame rate : 31.250 FPS (1536 SPF)
Bit depth : 16 bits
Compression mode : Lossy
Stream size : 129 MiB (6%)
Title : Français
Language : French
Service kind : Complete Main
Default : No
Forced : No

Скриншоты

ps

сборку посвящаю Мишке
[opentorrent.pro].t4041.torrent 
Торрент: Зарегистрирован [ 2019-06-30 16:43 ] · 2CA2D661948DE913A7382B1C617E452A87794642

Скачать .torrent

Скачать

11 KB

Статус: проверено
Скачан: 0 раз
Размер: 2,16 GB  ·  Тип торрента
terms.php
Профиль [ЛС]
Показать сообщения:    

Текущее время: 08-Июл 06:54

Часовой пояс: UTC ± 0



Вы не можете начинать темы
Вы не можете отвечать на сообщения
Вы не можете редактировать свои сообщения
Вы не можете удалять свои сообщения
Вы не можете голосовать в опросах
Вы не можете прикреплять файлы к сообщениям
Вы можете скачивать файлы