Статистика раздачи
Размер:  745 MB   |    Зарегистрирован:  1 год   |    Скачан:  0 раз
DL-List: Нет
Сидов:  16  [  0 KB/s  ]  
 
     
 
 

Гость ®

Пол:
Не указан

Братство
Страна: Россия
Жанр: драма, боевик, история, военный
Год выпуска: 2019
Продолжительность: 01:52:28
Субтитры: русские (форсированные, хардсаб)
Режиссер: Павел Лунгин
В ролях: Кирилл Пирогов, Ян Цапник, Виталий Кищенко, Федор Лавров, Олег Васильков, Антон Момот, Михаил Кремер, Кирилл Ермичев, Роман Колотухин, Василий Буткевич, Арслан Мурзабеков, Антон Кузнецов
Описание: 1988 год, канун вывода советских войск из Афганистана. Командование 108-й мотострелковой дивизии планирует отход через перевал Саланг, подконтрольный группировке моджахедов Инженера Хошема. Разведка пытается договориться о перемирии с душманами, но дело осложняется тем, что в плен к Хошему попадает советский военный пилот. Начинается сложная игра, в которой переплетаются противоположные интересы множества самых разных людей: штабистов, исламистов, спецназа, разведки, чиновников из афганского правительства, сотрудников советских спецслужб, таджиков и пуштунов. А в самом центре этого водоворота оказываются солдаты разведроты, для которых важнее любых политических соображений остается правило - не бросать своих.

Автор рипа: stalkerok
Сэмпл
Качество видео: WEB-DLRip-AVC | BRATSTVO_2019_WEB_DL_1080p-BLUEBIRD
Формат видео: MKV
Видео кодек: AVC
Аудио кодек: AAC
Видео: AVC, 859 Кбит/сек, 704x396 (16:9), 24 кадр/сек
Аудио: AAC, 64 Кбит/сек, 48 КГц, 2.0 - русский | iTunes (fix audio)
Навигация по главам: есть

x264/MediaInfo

---[Information] [24.06.2019 15:00:48] x264 [info]: frame I:1036 Avg QP:20.48 size: 33104
---[Information] [24.06.2019 15:00:48] x264 [info]: frame P:45766 Avg QP:24.40 size: 8404
---[Information] [24.06.2019 15:00:48] x264 [info]: frame B:115150 Avg QP:25.02 size: 2653
General
Unique ID : 57583439031163113230916774078239768442 (0x2B522ABD70136D2D503FA0A1BC3C7F7A)
Complete name : C:\temp\Bratstvo\Bratstvo.2019.WEB-DLRip.x264.Rus.stalkerok.New-Team..mkv
Format : Matroska
Format version : Version 4
File size : 745 MiB
Duration : 1 h 52 min
Overall bit rate : 926 kb/s
Movie name : Братство (2019) | Rip by stalkerok
Encoded date : UTC 2019-06-24 12:03:38
Writing application : mkvmerge v33.1.0 ('Primrose') 64-bit
Writing library : libebml v1.3.7 + libmatroska v1.5.0
Cover : Yes
Attachments : cover.png
Video
ID : 1
Format : AVC
Format/Info : Advanced Video Codec
Format profile : High@L4.1
Format settings : CABAC / 12 Ref Frames
Format settings, CABAC : Yes
Format settings, RefFrames : 12 frames
Codec ID : V_MPEG4/ISO/AVC
Duration : 1 h 52 min
Bit rate : 859 kb/s
Width : 704 pixels
Height : 396 pixels
Display aspect ratio : 16:9
Frame rate mode : Constant
Frame rate : 24.000 FPS
Color space : YUV
Chroma subsampling : 4:2:0
Bit depth : 8 bits
Scan type : Progressive
Bits/(Pixel*Frame) : 0.128
Stream size : 691 MiB (93%)
Title : Братство (2019) | Rip by stalkerok
Writing library : x264 core 157 r2969 d4099dd
Encoding settings : cabac=1 / ref=12 / deblock=1:-2:-1 / analyse=0x3:0x133 / me=umh / subme=11 / psy=1 / psy_rd=1.00:0.00 / mixed_ref=1 / me_range=32 / chroma_me=1 / trellis=2 / 8x8dct=1 / cqm=0 / deadzone=21,11 / fast_pskip=0 / chroma_qp_offset=-2 / threads=12 / lookahead_threads=3 / sliced_threads=0 / nr=0 / decimate=0 / interlaced=0 / bluray_compat=0 / constrained_intra=0 / bframes=16 / b_pyramid=2 / b_adapt=2 / b_bias=0 / direct=3 / weightb=1 / open_gop=0 / weightp=2 / keyint=240 / keyint_min=23 / scenecut=40 / intra_refresh=0 / rc_lookahead=60 / rc=2pass / mbtree=0 / bitrate=859 / ratetol=1.0 / qcomp=0.65 / qpmin=0 / qpmax=69 / qpstep=4 / cplxblur=20.0 / qblur=0.5 / vbv_maxrate=50000 / vbv_bufsize=62500 / nal_hrd=none / filler=0 / ip_ratio=1.40 / pb_ratio=1.30 / aq=3:1.00 / zones=156553,161951,q=36
Default : Yes
Forced : No
Audio
ID : 2
Format : AAC LC SBR
Format/Info : Advanced Audio Codec Low Complexity with Spectral Band Replication
Commercial name : HE-AAC
Format settings : Explicit
Codec ID : A_AAC-2
Duration : 1 h 52 min
Bit rate : 64.0 kb/s
Channel(s) : 2 channels
Channel layout : L R
Sampling rate : 48.0 kHz
Frame rate : 23.438 FPS (2048 SPF)
Compression mode : Lossy
Delay relative to video : 31 ms
Stream size : 51.5 MiB (7%)
Language : Russian
Default : Yes
Forced : No
Menu
00:00:00.000 : en:Глава 1
00:06:54.458 : en:Глава 2
00:13:52.041 : en:Глава 3
00:22:49.457 : en:Глава 4
00:29:55.165 : en:Глава 5
00:36:15.915 : en:Глава 6
00:43:57.498 : en:Глава 7
00:50:49.664 : en:Глава 8
00:58:47.705 : en:Глава 9
01:06:12.080 : en:Глава 10
01:13:35.080 : en:Глава 11
01:19:22.996 : en:Глава 12
01:27:22.704 : en:Глава 13
01:33:08.495 : en:Глава 14
01:41:36.453 : en:Глава 15

Скриншоты

[opentorrent.pro].t4051.torrent 
Торрент: Зарегистрирован [ 2019-06-30 18:47 ] · F4BE78412D7F4815855ECEBD40DFE7C8FF486A2B

Скачать .torrent

Скачать

15 KB

Статус: проверено
Скачан: 0 раз
Размер: 745 MB  ·  Тип торрента
terms.php
Показать сообщения:    

Текущее время: 08-Июл 06:56

Часовой пояс: UTC ± 0



Вы не можете начинать темы
Вы не можете отвечать на сообщения
Вы не можете редактировать свои сообщения
Вы не можете удалять свои сообщения
Вы не можете голосовать в опросах
Вы не можете прикреплять файлы к сообщениям
Вы можете скачивать файлы