Статистика раздачи
Размер:  744 MB   |    Зарегистрирован:  1 год   |    Скачан:  0 раз
DL-List: Нет
Сидов:  59  [  0 KB/s  ]   Личеров:  1  [  0 KB/s  ]  
 
     
 
 

Гость ®

Пол:
Не указан

Шафт
Shaft
«More Shaft than you can handle»
Страна: США
Жанр: боевик, комедия, криминал
Год выпуска: 2019
Продолжительность: 01:52:00
Перевод: Профессиональный (полное дублирование) [SDI Media]
Субтитры: русские (форсированные, полные)
Оригинальная аудиодорожка: английский
Режиссер: Тим Стори / Tim Story
В ролях: Сэмюэл Л. Джексон, Джесси Ашер, Ричард Раундтри, Реджина Холл, Александра Шипп, Мэтт Лауриа, Титус Уэлливер, Метод Мэн, Исаак Де Банколе, Эван Джогиа, Луна Лорен Велес, Робби Джонс
Описание: Джон Шафт III - специалист по кибербезопасности в ФБР, не привыкший решать проблемы грубой силой. Он предпочитает полагаться на логику и расчёт, но убийство лучшего друга ставит его в тупик. С ним не разобраться современными методами, так что Джону ничего не остается, кроме как обратиться за помощью к старшему поколению Шафтов, чьи старые методы помогут ему найти убийцу.

Автор рипа: stalkerok
Сэмпл
Качество видео: WEB-DLRip-AVC | Исходник: Shaft.2019.1080p.NF.WEB-DL.DDP5.1.x264-EniaHD (NTG)
Формат видео: MKV
Видео кодек: AVC
Аудио кодек: AAC
Видео: AVC, 863 Кбит/сек, 816x340 (2.40:1), 24 кадр/сек
Аудио: AAC, 64 Кбит/сек, 48 КГц, 2.0 - русский

x264/MediaInfo

---[Information] [28.06.2019 22:47:03] x264 [info]: frame I:2045 Avg QP:16.74 size: 34183
---[Information] [28.06.2019 22:47:03] x264 [info]: frame P:36879 Avg QP:20.84 size: 9712
---[Information] [28.06.2019 22:47:03] x264 [info]: frame B:122368 Avg QP:23.08 size: 2426
General
Unique ID : 67368702346441293234743510823091547567 (0x32AEBD7843E7E6DAE7FA9E6DB88FADAF)
Complete name : C:\temp\Shaft\Shaft.2019.WEB-DLRip.x264.Rus.stalkerok.New-Team..mkv
Format : Matroska
Format version : Version 4
File size : 744 MiB
Duration : 1 h 52 min
Overall bit rate : 929 kb/s
Movie name : Shaft (2019) | Rip by stalkerok
Encoded date : UTC 2019-06-28 20:15:23
Writing application : mkvmerge v33.1.0 ('Primrose') 64-bit
Writing library : libebml v1.3.7 + libmatroska v1.5.0
Video
ID : 1
Format : AVC
Format/Info : Advanced Video Codec
Format profile : High@L4.1
Format settings : CABAC / 12 Ref Frames
Format settings, CABAC : Yes
Format settings, RefFrames : 12 frames
Codec ID : V_MPEG4/ISO/AVC
Duration : 1 h 52 min
Bit rate : 863 kb/s
Width : 816 pixels
Height : 340 pixels
Display aspect ratio : 2.40:1
Frame rate mode : Constant
Frame rate : 24.000 FPS
Color space : YUV
Chroma subsampling : 4:2:0
Bit depth : 8 bits
Scan type : Progressive
Bits/(Pixel*Frame) : 0.130
Stream size : 691 MiB (93%)
Title : Shaft (2019) | Rip by stalkerok
Writing library : x264 core 157 r2945 72db437
Encoding settings : cabac=1 / ref=12 / deblock=1:-2:-1 / analyse=0x3:0x133 / me=umh / subme=10 / psy=1 / psy_rd=1.00:0.00 / mixed_ref=1 / me_range=32 / chroma_me=1 / trellis=2 / 8x8dct=1 / cqm=0 / deadzone=21,11 / fast_pskip=0 / chroma_qp_offset=-2 / threads=11 / lookahead_threads=2 / sliced_threads=0 / nr=0 / decimate=0 / interlaced=0 / bluray_compat=0 / constrained_intra=0 / bframes=15 / b_pyramid=2 / b_adapt=2 / b_bias=0 / direct=3 / weightb=1 / open_gop=0 / weightp=2 / keyint=240 / keyint_min=23 / scenecut=40 / intra_refresh=0 / rc_lookahead=60 / rc=2pass / mbtree=0 / bitrate=863 / ratetol=1.0 / qcomp=0.65 / qpmin=0 / qpmax=69 / qpstep=4 / cplxblur=20.0 / qblur=0.5 / vbv_maxrate=50000 / vbv_bufsize=62500 / nal_hrd=none / filler=0 / ip_ratio=1.40 / pb_ratio=1.30 / aq=3:0.95 / zones=153742,161291,q=34
Language : English
Default : Yes
Forced : No
Audio
ID : 2
Format : AAC LC SBR
Format/Info : Advanced Audio Codec Low Complexity with Spectral Band Replication
Commercial name : HE-AAC
Format settings : Explicit
Codec ID : A_AAC-2
Duration : 1 h 52 min
Bit rate : 64.0 kb/s
Channel(s) : 2 channels
Channel layout : L R
Sampling rate : 48.0 kHz
Frame rate : 23.438 FPS (2048 SPF)
Compression mode : Lossy
Delay relative to video : 31 ms
Stream size : 51.3 MiB (7%)
Language : Russian
Default : Yes
Forced : No
Text #1
ID : 3
Format : UTF-8
Codec ID : S_TEXT/UTF8
Codec ID/Info : UTF-8 Plain Text
Duration : 1 h 50 min
Bit rate : 3 b/s
Count of elements : 47
Stream size : 2.55 KiB (0%)
Title : Forced
Language : Russian
Default : Yes
Forced : No
Text #2
ID : 4
Format : UTF-8
Codec ID : S_TEXT/UTF8
Codec ID/Info : UTF-8 Plain Text
Duration : 1 h 50 min
Bit rate : 119 b/s
Count of elements : 1990
Stream size : 96.7 KiB (0%)
Title : Full
Language : Russian
Default : No
Forced : No

Скриншоты

[opentorrent.pro].t4075.torrent 
Торрент: Зарегистрирован [ 2019-07-02 15:33 ] · 96BAE3729AAD3ADEEC7B79B8A06D00242A067B37

Скачать .torrent

Скачать

15 KB

Статус: проверено
Скачан: 0 раз
Размер: 744 MB  ·  Тип торрента
terms.php
Показать сообщения:    

Текущее время: 09-Июл 12:18

Часовой пояс: UTC ± 0



Вы не можете начинать темы
Вы не можете отвечать на сообщения
Вы не можете редактировать свои сообщения
Вы не можете удалять свои сообщения
Вы не можете голосовать в опросах
Вы не можете прикреплять файлы к сообщениям
Вы можете скачивать файлы