Статистика раздачи
Скачал: [ 1 ]
Размер:  1,36 GB   |    Зарегистрирован:  1 год   |    Скачан:  1 раз

Полного источника не было: 6 месяцев 30 дней

 
     
 
 

serzh ®

Пол:
Не указан
Стаж:
1 год 3 месяца
Сообщений:
442

В седло, сынок...! / В седло, сын...! / Monta in sella, figlio di…!
Страна: Италия, Испания
Жанр: вестерн, приключения
Год выпуска: 1972
Продолжительность: 01:25:59

Перевод: Одноголосый закадровый Вадим Назаров
Субтитры: нет
Режиссер: Тонино Риччи / Tonino Ricci
В ролях: Марк Дэймон, Стельвио Рози, Луис Марин, Розальба Нери, Альфредо Майо, Джанкарло Бадесси, Бруно Ари, Франсиско Санс, Луис Марин
Описание: Слепой хочет заполучить золото мошенников, однако в одиночку это ему не по силам, поэтому он берет в помощь четверку наемников…
Сэмпл: http://multi-up.com/1235705
Качество видео: VHSRip (Исходник - DVD5)
Формат видео: AVI
Видео: XviD 73, 688x288, (2,40:1), 23.976 fps, 2070 Кбит/с, 8 бит
Аудио: Русский (АС3, 2 ch (Front: L R), 48,0 KHz, 192 Kbps)

MediaInfo

Общее
Полное имя : D:\Фильмы на трекер\В седло, сынок...! (вестерн, приключения 1972 год).avi
Формат : AVI
Формат/Информация : Audio Video Interleave
Размер файла : 1,36 Гбайт
Продолжительность : 1 ч. 25 м.
Общий поток : 2271 Кбит/сек
Программа кодирования : VirtualDubMod 1.5.10.3 | www.virtualdub-fr.org || (build 2550/release)
Библиотека кодирования : VirtualDubMod build 2550/release
Видео
Идентификатор : 0
Формат : MPEG-4 Visual
Профиль формата : Advanced Simple@L5
Параметр BVOP формата : 2
Параметр QPel формата : Нет
Параметр GMC формата : Без точки перехода
Параметр матрицы формата : Выборочная
Идентификатор кодека : XVID
Идентификатор кодека/Подсказка : XviD
Продолжительность : 1 ч. 25 м.
Битрейт : 2070 Кбит/сек
Ширина : 688 пикселей
Высота : 288 пикселей
Соотношение сторон : 2,40:1
Частота кадров : 23,976 (24000/1001) кадра/сек
Цветовое пространство : YUV
Субдискретизация насыщенности : 4:2:0
Битовая глубина : 8 бит
Тип развёртки : Прогрессивная
Метод сжатия : С потерями
Бит/(Пиксели*Кадры) : 0.436
Размер потока : 1,24 Гбайт (91%)
Библиотека кодирования : XviD 73
Аудио
Идентификатор : 1
Формат : AC-3
Формат/Информация : Audio Coding 3
Расширение режима : CM (complete main)
Параметр Endianness формата : Big
Идентификатор кодека : 2000
Продолжительность : 1 ч. 25 м.
Вид битрейта : Постоянный
Битрейт : 192 Кбит/сек
Каналы : 2 канала
Расположение каналов : Front: L R
Частота : 48,0 КГц
Частота кадров : 31,250 кадров/сек (1536 spf)
Метод сжатия : С потерями
Размер потока : 118 Мбайт (8%)
Выравнивание : Разделение по промежуткам
Продолжительность промежутка : 42 мс. (1,00 видеокадр)
Время предзагрузки промежутка : 500 мс.

Скриншот c названием фильма

Скриншоты

[opentorrent.pro].t4077.torrent 
Торрент: Зарегистрирован [ 2019-07-02 15:33 ] · FEF98B8C2F1F3425401D9ECB591A0023998E00A6

Скачать .torrent

Скачать

14 KB

Статус: проверено
Скачан: 1 раз
Размер: 1,36 GB  ·  Тип торрента
terms.php
Профиль [ЛС]
Показать сообщения:    

Текущее время: 04-Июл 18:39

Часовой пояс: UTC ± 0



Вы не можете начинать темы
Вы не можете отвечать на сообщения
Вы не можете редактировать свои сообщения
Вы не можете удалять свои сообщения
Вы не можете голосовать в опросах
Вы не можете прикреплять файлы к сообщениям
Вы можете скачивать файлы