Статистика раздачи
Размер:  1,47 GB   |    Зарегистрирован:  1 год 1 месяц   |    Скачан:  0 раз
DL-List: Нет
Сидов:  41  [  0 KB/s  ]   Личеров:  1  [  0 KB/s  ]  
 
     
 
 

солнышко ®

Пол:
Не указан
Стаж:
1 год 4 месяца
Сообщений:
720

Город лжи
City of Lies
«Кто убил Бигги?»
Страна: Великобритания, США
Жанр: триллер, драма, криминал, детектив, биография
Год выпуска: 2018
Продолжительность: 01:52:17
Перевод: Профессиональный (многоголосый, закадровый) [СВ Студия]
Субтитры: нет
Оригинальная аудиодорожка: нет
Режиссер: Брэд Фурман / Brad Furman
В ролях: Джонни Депп, Форест Уитакер, Тоби Хасс, Дэйтон Калли, Нил Браун мл., Луис Хертэм, Шей Уигэм, Ксандер Беркли, Мелани Бенц, Шамир Андерсон, Лоуренс Мэйсон, Кристиан Джордж
Описание: 7 сентября 1996 года был смертельно ранен рэпер Тупак Шакур, через полгода был застрелен главный подозреваемый в его убийстве - хип-хоп-звезда Бигги Смолз. Преступники не были найдены, дело о «рэперской войне побережий» было закрыто. Спустя годы опальный детектив Рассел Пул возвращается к расследованию и вместе с репортером Джексоном распутывает паутину немыслимого заговора, в котором, очевидно, замешана полиция Лас-Вегаса.

Автор рипа: stalkerok
Сэмпл
Качество видео: BDRip-AVC | Исходник: City.of.Lies.2018.BluRay.Remux.AVC.DTS-HD.MA.5.1-iFT
Формат видео: MKV
Видео кодек: AVC
Аудио кодек: AC3
Видео: AVC, 1421 Кбит/сек, 1046x438 (2.40:1), 24 кадр/сек
Аудио: AC3, 448 Кбит/сек, 48 КГц, 5.1 - русский
Навигация по главам: есть

x264/MediaInfo

---[Information] [29.06.2019 13:54:29] x264 [info]: frame I:1144 Avg QP:15.55 size: 40028
---[Information] [29.06.2019 13:54:29] x264 [info]: frame P:33606 Avg QP:17.07 size: 15902
---[Information] [29.06.2019 13:54:29] x264 [info]: frame B:126942 Avg QP:19.34 size: 4861
General
Unique ID : 303524217167154592231804592601692898173 (0xE458A34B602D224D0A21690AA40C037D)
Complete name : C:\temp\City of Lies\City.of.Lies.2018.BDRip.x264.Rus.stalkerok.New-Team.mkv
Format : Matroska
Format version : Version 4 / Version 2
File size : 1.47 GiB
Duration : 1 h 52 min
Overall bit rate : 1 871 kb/s
Movie name : City of Lies (2018) | Rip by stalkerok
Encoded date : UTC 2019-06-29 10:59:31
Writing application : mkvmerge v33.1.0 ('Primrose') 64-bit
Writing library : libebml v1.3.7 + libmatroska v1.5.0
Video
ID : 1
Format : AVC
Format/Info : Advanced Video Codec
Format profile : High@L4.1
Format settings, CABAC : Yes
Format settings, ReFrames : 12 frames
Codec ID : V_MPEG4/ISO/AVC
Duration : 1 h 52 min
Bit rate : 1 422 kb/s
Width : 1 046 pixels
Height : 438 pixels
Display aspect ratio : 2.40:1
Frame rate mode : Constant
Frame rate : 24.000 FPS
Color space : YUV
Chroma subsampling : 4:2:0
Bit depth : 8 bits
Scan type : Progressive
Bits/(Pixel*Frame) : 0.129
Stream size : 1.12 GiB (76%)
Title : City of Lies (2018) | Rip by stalkerok
Writing library : x264 core 157 r2945 72db437
Encoding settings : cabac=1 / ref=12 / deblock=1:-3:-2 / analyse=0x3:0x133 / me=umh / subme=10 / psy=1 / psy_rd=1.00:0.00 / mixed_ref=1 / me_range=32 / chroma_me=1 / trellis=2 / 8x8dct=1 / cqm=0 / deadzone=21,11 / fast_pskip=0 / chroma_qp_offset=-2 / threads=12 / lookahead_threads=3 / sliced_threads=0 / nr=0 / decimate=1 / interlaced=0 / bluray_compat=0 / constrained_intra=0 / bframes=14 / b_pyramid=2 / b_adapt=2 / b_bias=0 / direct=3 / weightb=1 / open_gop=0 / weightp=2 / keyint=240 / keyint_min=23 / scenecut=40 / intra_refresh=0 / rc_lookahead=60 / rc=crf / mbtree=0 / crf=18.5 / qcomp=0.65 / qpmin=0 / qpmax=69 / qpstep=4 / vbv_maxrate=50000 / vbv_bufsize=62500 / crf_max=0.0 / nal_hrd=none / filler=0 / ip_ratio=1.40 / pb_ratio=1.30 / aq=3:0.80 / zones=150158,161691,q=34
Default : Yes
Forced : No
Audio
ID : 2
Format : AC-3
Format/Info : Audio Coding 3
Mode extension : CM (complete main)
Format settings, Endianness : Big
Codec ID : A_AC3
Duration : 1 h 52 min
Bit rate mode : Constant
Bit rate : 448 kb/s
Channel(s) : 6 channels
Channel positions : Front: L C R, Side: L R, LFE
Sampling rate : 48.0 kHz
Frame rate : 31.250 FPS (1536 spf)
Compression mode : Lossy
Stream size : 360 MiB (24%)
Language : Russian
Default : Yes
Forced : No
Menu
00:00:00.000 : en:Chapter 01
00:05:23.083 : en:Chapter 02
00:10:00.208 : en:Chapter 03
00:16:00.625 : en:Chapter 04
00:22:14.208 : en:Chapter 05
00:27:25.542 : en:Chapter 06
00:33:04.875 : en:Chapter 07
00:38:14.750 : en:Chapter 08
00:43:31.083 : en:Chapter 09
00:49:31.458 : en:Chapter 10
00:55:02.833 : en:Chapter 11
01:00:54.167 : en:Chapter 12
01:07:40.792 : en:Chapter 13
01:12:40.792 : en:Chapter 14
01:17:49.292 : en:Chapter 15
01:21:38.500 : en:Chapter 16
01:27:32.875 : en:Chapter 17
01:32:16.250 : en:Chapter 18
01:38:06.667 : en:Chapter 19
01:43:18.833 : en:Chapter 20

Скриншоты

[opentorrent.pro].t4079.torrent 
Торрент: Зарегистрирован [ 2019-07-02 15:33 ] · B87D4D58EA3C507AFDAA35AF6F4820738FCD3A02

Скачать .torrent

Скачать

15 KB

Статус: проверено
Скачан: 0 раз
Размер: 1,47 GB  ·  Тип торрента
terms.php
Профиль [ЛС]
Показать сообщения:    

Текущее время: 05-Авг 01:43

Часовой пояс: UTC ± 0



Вы не можете начинать темы
Вы не можете отвечать на сообщения
Вы не можете редактировать свои сообщения
Вы не можете удалять свои сообщения
Вы не можете голосовать в опросах
Вы не можете прикреплять файлы к сообщениям
Вы можете скачивать файлы