Статистика раздачи
Размер:  1,46 GB   |    Зарегистрирован:  1 год   |    Скачан:  0 раз
DL-List: Нет

Полного источника не было: Никогда

 
     
 
 

солнышко ®

Пол:
Не указан
Стаж:
1 год 3 месяца
Сообщений:
723

Город лжи / City of Lies
«Кто убил Бигги?»
- Год выхода: 2018
Страна: Великобритания, США
Жанр: триллер, драма, криминал, детектив, биография
Продолжительность: 01:52:17
Перевод: Профессиональный (многоголосый закадровый) СВ Студия
Субтитры: нет-Режиссер:
Брэд Фурман / Brad Furman-В ролях:
Джонни Депп, Форест Уитакер, Тоби Хасс, Дэйтон Калли, Нил Браун мл., Луис Хертэм, Шей Уигэм, Ксандер Беркли, Мелани Бенц, Шамир Андерсон-О фильме:
7 сентября 1996 года был смертельно ранен рэпер Тупак Шакур, через полгода был застрелен главный подозреваемый в его убийстве — хип-хоп-звезда Бигги Смолз. Преступники не были найдены, дело о «рэперской войне побережий» было закрыто. Спустя годы опальный детектив Рассел Пул возвращается к расследованию и вместе с репортером Джексоном распутывает паутину немыслимого заговора, в котором, очевидно, замешана полиция Лас-Вегаса.-Релиз групп | | IMDB | КиноПоиск | Сэмпл |-Качество: BDRip [City.of.Lies.2018.1080p.BluRay.REMUX.AVC.DTS-HD.MA.5.1-iFT]
Формат: AVI
Видео: 720x304 (2.37:1), 24.000 fps, XviD build 67 ~1401 kbps avg, 0.27 bit/pixel
Аудио: 48 kHz, AC3 Dolby Digital, 3/2 (L,C,R,l,r) + LFE ch, ~448 kbps avg-

Скриншоты

-

MediaInfo

Код:Полное имя : D:\Gorod_lzhi_2018_BDRip_[CB]_by_Dalemake.avi
Формат : AVI
Формат/Информация : Audio Video Interleave
Размер файла : 1,46 Гбайт
Продолжительность : 1 ч. 52 м.
Общий поток : 1859 Кбит/сек
Программа кодирования : VirtualDubMod 1.5.10.3 | www.virtualdub-fr.org || (build 2550/release)
Библиотека кодирования : VirtualDubMod build 2550/release
Видео
Идентификатор : 0
Формат : MPEG-4 Visual
Профиль формата : Advanced Simple@L5
Параметр BVOP формата : 1
Параметр QPel формата : Нет
Параметр GMC формата : Без точки перехода
Параметр матрицы формата : Выборочная
Идентификатор кодека : XVID
Идентификатор кодека/Подсказка : XviD
Продолжительность : 1 ч. 52 м.
Битрейт : 1402 Кбит/сек
Ширина : 720 пикселей
Высота : 304 пикселя
Соотношение сторон : 2,35:1
Частота кадров : 24,000 кадра/сек
Цветовое пространство : YUV
Субдискретизация насыщенности : 4:2:0
Битовая глубина : 8 бит
Тип развёртки : Прогрессивная
Метод сжатия : С потерями
Бит/(Пиксели*Кадры) : 0.267
Размер потока : 1,10 Гбайт (75%)
Библиотека кодирования : XviD 67
Аудио
Идентификатор : 1
Формат : AC-3
Формат/Информация : Audio Coding 3
Расширение режима : CM (complete main)
Параметр Endianness формата : Big
Идентификатор кодека : 2000
Продолжительность : 1 ч. 52 м.
Вид битрейта : Постоянный
Битрейт : 448 Кбит/сек
Каналы : 6 каналов
Расположение каналов : Front: L C R, Side: L R, LFE
Частота : 48,0 КГц
Битовая глубина : 16 бит
Метод сжатия : С потерями
Размер потока : 360 Мбайт (24%)
Выравнивание : Разделение по промежуткам
Продолжительность промежутка : 42 мс. (1,00 видеокадр)
Время предзагрузки промежутка : 500 мс.
-
[opentorrent.pro].t4080.torrent 
Торрент: Зарегистрирован [ 2019-07-02 15:33 ] · 666984E26BEBCCF78C6AE2366DEC01CAED77F11F

Скачать .torrent

Скачать

15 KB

Статус: проверено
Скачан: 0 раз
Размер: 1,46 GB  ·  Тип торрента
terms.php
Профиль [ЛС]
Показать сообщения:    

Текущее время: 09-Июл 11:10

Часовой пояс: UTC ± 0



Вы не можете начинать темы
Вы не можете отвечать на сообщения
Вы не можете редактировать свои сообщения
Вы не можете удалять свои сообщения
Вы не можете голосовать в опросах
Вы не можете прикреплять файлы к сообщениям
Вы можете скачивать файлы