Статистика раздачи
Размер:  2,56 GB   |    Зарегистрирован:  1 год   |    Скачан:  0 раз
DL-List: Нет

Полного источника не было: Никогда

 
     
 
 

солнышко ®

Пол:
Не указан
Стаж:
1 год 4 месяца
Сообщений:
723

Мотылек / Papillon- Страна: Чехия, Испания, США
Жанр: триллер, драма, криминал, детектив, приключения
Год выпуска: 2017
Продолжительность: 02:13:14
Перевод: Профессиональный (дублированный)
Субтитры: русские, английские
Оригинальная аудиодорожка: английский
Режиссер: Михаэль Ноер / Michael Noer
В ролях: Чарли Ханнэм, Рами Малек, Томми Флэнаган, Ив Хьюсон, Роланд Мёллер, Нина Сеникар, Майкл Сока, Кристофер Фэйрбэнк, Йорик ван Вагенинген, Йоэль Басман
Описание: Взломщик сейфов по прозвищу Мотылёк получает пожизненный срок и отправляется на каторгу за убийство, которого он не совершал. Когда вокруг враги, а надежда угасает с каждым днём заключения, лишь сила духа может помочь Мотыльку обрести свободу.
Сэмпл: http://sendfile.su/1503285

Качество видео: BDRip-AVC (Papillon.2017.BDREMUX.1080p.seleZen)
Формат видео: MKV
Видео: x264, 1152x452 (2.40:1) 23,976 fps, ~1851 kbps, 0,139 bit/pixel
Аудио 1: 48 kHz, AC3 Dolby Digital, 3/2 (L,C,R,l,r) + LFE ch, ~448 kbps | Дубляж
Аудио 2: 48 kHz, AC3 Dolby Digital, 3/2 (L,C,R,l,r) + LFE ch, ~448 kbps | Английский
Формат субтитров: softsub (SRT)

MediaInfo

General
Unique ID : 327649561050896291996023002404467746343 (0xF67F029536CB086AFB64B72D0437A627)
Format : Matroska
Format version : Version 4 / Version 2
File size : 2.56 GiB
Duration : 2h 13mn
Overall bit rate : 2 749 Kbps
Encoded date : UTC 2019-06-30 09:11:12
Writing application : mkvmerge v35.0.0 ('All The Love In The World') 64-bit
Writing library : libebml v1.3.9 + libmatroska v1.5.2
Video #1
ID : 1
Format : AVC
Format/Info : Advanced Video Codec
Format profile : High@L4.1
Format settings, CABAC : Yes
Format settings, ReFrames : 13 frames
Codec ID : V_MPEG4/ISO/AVC
Duration : 2h 13mn
Bit rate : 1 851 Kbps
Width : 1 152 pixels
Height : 482 pixels
Display aspect ratio : 2.40:1
Frame rate mode : Constant
Frame rate : 23.976 (24000/1001) fps
Color space : YUV
Chroma subsampling : 4:2:0
Bit depth : 8 bits
Scan type : Progressive
Bits/(Pixel*Frame) : 0.139
Stream size : 1.72 GiB (67%)
Writing library : x264 core 157 r2935 545de2f
Encoding settings : cabac=1 / ref=13 / deblock=1:-3:-2 / analyse=0x3:0x133 / me=umh / subme=10 / psy=1 / psy_rd=1.00:0.00 / mixed_ref=1 / me_range=32 / chroma_me=1 / trellis=2 / 8x8dct=1 / cqm=0 / deadzone=21,11 / fast_pskip=0 / chroma_qp_offset=-2 / threads=6 / lookahead_threads=1 / sliced_threads=0 / nr=0 / decimate=1 / interlaced=0 / bluray_compat=0 / constrained_intra=0 / bframes=14 / b_pyramid=2 / b_adapt=2 / b_bias=0 / direct=1 / weightb=1 / open_gop=0 / weightp=2 / keyint=250 / keyint_min=23 / scenecut=40 / intra_refresh=0 / rc=crf / mbtree=0 / crf=19.8 / qcomp=0.65 / qpmin=0 / qpmax=69 / qpstep=4 / ip_ratio=1.40 / pb_ratio=1.30 / aq=3:0.90
Language : English
Default : Yes
Forced : No
Audio #2
ID : 2
Format : AC-3
Format/Info : Audio Coding 3
Mode extension : CM (complete main)
Format settings, Endianness : Big
Codec ID : A_AC3
Duration : 2h 13mn
Bit rate mode : Constant
Bit rate : 448 Kbps
Channel(s) : 6 channels
Channel positions : Front: L C R, Side: L R, LFE
Sampling rate : 48.0 KHz
Frame rate : 31.250 fps (1536 spf)
Compression mode : Lossy
Stream size : 427 MiB (16%)
Language : Russian
Default : Yes
Forced : No
Audio #3
ID : 3
Format : AC-3
Format/Info : Audio Coding 3
Mode extension : CM (complete main)
Format settings, Endianness : Big
Codec ID : A_AC3
Duration : 2h 13mn
Bit rate mode : Constant
Bit rate : 448 Kbps
Channel(s) : 6 channels
Channel positions : Front: L C R, Side: L R, LFE
Sampling rate : 48.0 KHz
Frame rate : 31.250 fps (1536 spf)
Compression mode : Lossy
Stream size : 427 MiB (16%)
Language : English
Default : No
Forced : No
Text #4
ID : 4
Format : UTF-8
Codec ID : S_TEXT/UTF8
Codec ID/Info : UTF-8 Plain Text
Duration : 2h 4mn
Bit rate : 48 bps
Count of elements : 964
Stream size : 43.9 KiB (0%)
Title : Full
Language : Russian
Default : No
Forced : No
Text #5
ID : 5
Format : UTF-8
Codec ID : S_TEXT/UTF8
Codec ID/Info : UTF-8 Plain Text
Duration : 2h 1mn
Bit rate : 29 bps
Count of elements : 982
Stream size : 25.8 KiB (0%)
Title : Full
Language : English
Default : No
Forced : No
Text #6
ID : 6
Format : UTF-8
Codec ID : S_TEXT/UTF8
Codec ID/Info : UTF-8 Plain Text
Duration : 2h 12mn
Bit rate : 32 bps
Count of elements : 1230
Stream size : 31.2 KiB (0%)
Title : SDH
Language : English
Default : No
Forced : No

лог

raw [info]: 1152x482p 1:1 @ 24000/1001 fps (cfr)
x264 [info]: using SAR=1/1
x264 [info]: using cpu capabilities: MMX2 SSE2Fast SSSE3 SSE4.2 AVX XOP FMA3 BMI1
x264 [info]: profile High, level 4.1, 4:2:0, 8-bit
x264 [info]: frame I:1227 Avg QP:17.57 size: 63406
x264 [info]: frame P:39725 Avg QP:19.69 size: 21782
x264 [info]: frame B:150728 Avg QP:22.43 size: 6014
x264 [info]: consecutive B-frames: 1.7% 2.3% 8.5% 19.3% 17.3% 33.2% 4.9% 1.1% 2.0% 1.1% 3.6% 1.1% 1.3% 1.5% 1.2%
x264 [info]: mb I I16..4: 6.5% 77.5% 16.0%
x264 [info]: mb P I16..4: 0.9% 11.3% 2.1% P16..4: 42.8% 21.4% 15.1% 0.5% 0.1% skip: 5.8%
x264 [info]: mb B I16..4: 0.1% 1.0% 0.2% B16..8: 41.3% 9.2% 2.1% direct: 3.6% skip:42.5% L0:43.8% L1:46.5% BI: 9.7%
x264 [info]: 8x8 transform intra:78.3% inter:70.4%
x264 [info]: coded y,uvDC,uvAC intra: 82.1% 72.5% 38.3% inter: 18.5% 10.7% 1.0%
x264 [info]: i16 v,h,dc,p: 32% 13% 6% 50%
x264 [info]: i8 v,h,dc,ddl,ddr,vr,hd,vl,hu: 18% 8% 5% 8% 13% 13% 13% 11% 11%
x264 [info]: i4 v,h,dc,ddl,ddr,vr,hd,vl,hu: 27% 5% 3% 8% 13% 13% 12% 9% 10%
x264 [info]: i8c dc,h,v,p: 34% 27% 23% 16%
x264 [info]: Weighted P-Frames: Y:12.3% UV:6.9%
x264 [info]: ref P L0: 49.9% 13.1% 14.3% 5.5% 4.1% 3.2% 2.6% 1.5% 1.4% 1.2% 1.1% 1.0% 1.0% 0.2% 0.0%
x264 [info]: ref B L0: 77.7% 9.0% 4.7% 2.3% 1.8% 1.3% 1.0% 0.6% 0.5% 0.5% 0.3% 0.1%
x264 [info]: ref B L1: 94.8% 5.2%
x264 [info]: kb/s:1850.79
x264 [total]: encoded 191680 frames, 5.99 fps, 1850.79 kb/s

Скриншоты


[opentorrent.pro].t4087.torrent 
Торрент: Зарегистрирован [ 2019-07-02 15:33 ] · EA6EBA2AA1D05DF037E65E6CB862BDDF6A4D32F1

Скачать .torrent

Скачать

13 KB

Статус: проверено
Скачан: 0 раз
Размер: 2,56 GB  ·  Тип торрента
terms.php
Профиль [ЛС]
Показать сообщения:    

Текущее время: 16-Июл 14:26

Часовой пояс: UTC ± 0



Вы не можете начинать темы
Вы не можете отвечать на сообщения
Вы не можете редактировать свои сообщения
Вы не можете удалять свои сообщения
Вы не можете голосовать в опросах
Вы не можете прикреплять файлы к сообщениям
Вы можете скачивать файлы