Статистика раздачи
Размер:  746 MB   |    Зарегистрирован:  1 год   |    Скачан:  0 раз
DL-List: Нет

Полного источника не было: Никогда

 
     
 
 

Гость ®

Пол:
Не указан

Тело / El cuerpo
Год выпуска: 2012
Страна: Испания
Жанр: триллер
Продолжительность: 01:51:11
Перевод: Любительский (многоголосый, закадровый) [BabylonFilms]
Cубтитры: нет
Режиссер: Ориол Паоло / Oriol Paulo
В ролях: Белен Руэда, Уго Силва, Аура Гарридо, Хосе Коронадо, Хуан Пабло Шук, Наусикая Боннин, Кристина Пласас, Ориол Вила, Патриция Баргальо, Хорди Планас, Aida Oset, Пако Морено
Описание: Грузовик сбивает человека, убегающего от кого-то или от чего-то в панике. Прибывшие на место полицейские выясняют, что погибший - ночной сторож из близлежащего морга. Так что так напугало несчастного? И куда делся из отсека N3 недавно привезенный в морг труп?
Доп. информация:
Кинопоиск
IMDb
Сэмпл: http://multi-up.com/1235796
Автор - Scarabey
Качество видео: HDRip
Формат видео: AVI
Видео: 688x288 (2.39:1), 24 fps, XviD build 73 ~800 kbps avg, 0.17 bit/pixel
Аудио: 48 kHz, MPEG Layer 3, 2 ch, ~128.00 kbps avg

MediaInfo

Общее
Полное имя : The.Body.2012_mvo_HDRip_[Scarabey].avi
Формат : AVI
Формат/Информация : Audio Video Interleave
Размер файла : 746 Мбайт
Продолжительность : 1 ч. 51 м.
Общий поток : 938 Кбит/сек
Программа кодирования : VirtualDubMod 1.5.10.3 | www.virtualdub-fr.org || (build 2550/release)
Библиотека кодирования : VirtualDubMod build 2550/release
Видео
Идентификатор : 0
Формат : MPEG-4 Visual
Профиль формата : Advanced Simple@L5
Настройки формата : BVOP1 / Custom Matrix
Параметр BVOP формата : 1
Параметр QPel формата : Нет
Параметр GMC формата : Без точки перехода
Параметр матрицы формата : Выборочная
Идентификатор кодека : XVID
Идентификатор кодека/Подсказка : XviD
Продолжительность : 1 ч. 51 м.
Битрейт : 801 Кбит/сек
Ширина : 688 пикселей
Высота : 288 пикселей
Соотношение сторон : 2,40:1
Частота кадров : 24,000 кадра/сек
Цветовое пространство : YUV
Субдискретизация насыщенности : 4:2:0
Битовая глубина : 8 бит
Тип развёртки : Прогрессивная
Метод сжатия : С потерями
Бит/(Пиксели*Кадры) : 0.168
Размер потока : 637 Мбайт (85%)
Библиотека кодирования : XviD 73
Аудио
Идентификатор : 1
Формат : MPEG Audio
Версия формата : Version 1
Профиль формата : Layer 3
Идентификатор кодека : 55
Идентификатор кодека/Подсказка : MP3
Продолжительность : 1 ч. 51 м.
Вид битрейта : Постоянный
Битрейт : 128 Кбит/сек
Каналы : 2 канала
Частота : 48,0 КГц
Частота кадров : 41,667 кадра/сек (1152 SPF)
Метод сжатия : С потерями
Размер потока : 102 Мбайт (14%)
Выравнивание : Соединение по промежуткам
Продолжительность промежутка : 42 мс. (1,00 видеокадр)
Время предзагрузки промежутка : 504 мс.
Библиотека кодирования : LAME3.99r
Настройки программы : -m s -V 4 -q 2 -lowpass 17 -b 128

Скриншоты

[opentorrent.pro].t4091.torrent 
Торрент: Зарегистрирован [ 2019-07-02 15:33 ] · 54E0E27350048B601AA01F200D7DF70C91530021

Скачать .torrent

Скачать

15 KB

Статус: проверено
Скачан: 0 раз
Размер: 746 MB  ·  Тип торрента
terms.php
Показать сообщения:    

Текущее время: 04-Июл 17:56

Часовой пояс: UTC ± 0



Вы не можете начинать темы
Вы не можете отвечать на сообщения
Вы не можете редактировать свои сообщения
Вы не можете удалять свои сообщения
Вы не можете голосовать в опросах
Вы не можете прикреплять файлы к сообщениям
Вы можете скачивать файлы