Статистика раздачи
Размер:  1,46 GB   |    Зарегистрирован:  1 год 1 месяц   |    Скачан:  0 раз
DL-List: Нет
Сидов:  21  [  0 KB/s  ]   Личеров:  2  [  0 KB/s  ]  
 
     
 
 

Гость ®

Пол:
Не указан

Зов волка
Le chant du loup
«Когда нет места страху, нет права на ошибку и нет времени на раздумья...»
Страна: Франция
Жанр: боевик, драма
Год выпуска: 2019
Продолжительность: 01:55:45
Перевод: Профессиональный (многоголосый, закадровый) [СВ Студия]
Субтитры: нет
Оригинальная аудиодорожка: нет
Режиссер: Антонин Бодри / Antonin Baudry
В ролях: Франсуа Сивиль, Омар Си, Матьё Кассовиц, Реда Катеб, Паула Бир, Алексис Михалик, Жан-Ив Бертело, Дамиен Боннар, Себастьен Либессар
Описание: Молодой подводник обладает редким даром распознавать каждый звук, который он слышит. От его «Золотого уха» зависят судьбы людей, а ошибка ставит под угрозу жизнь всего экипажа подводной лодки. Желая вернуть доверие своих товарищей, он проводит собственное расследование военной провокации, в результате которой весь мир оказывается в шаге от ядерного апокалипсиса. Чтобы предотвратить мировую войну, элитной боевой команде подлодки необходимо совершить невозможное, ведь главный приказ отмене не подлежит.

Автор рипа: stalkerok
Сэмпл
Качество видео: BDRip-AVC | Исходник: Le.Chant.du.Loup.2019.FRENCH.COMPLETE.BLURAY-UTT
Формат видео: MKV
Видео кодек: AVC
Аудио кодек: AC3
Видео: AVC, 1354 Кбит/сек, 1046x438 (2.40:1), 23,976 кадр/сек
Аудио: AC3, 448 Кбит/сек, 48 КГц, 5.1 - русский
Навигация по главам: есть

x264/MediaInfo

---[Information] [30.06.2019 19:42:47] x264 [info]: frame I:1360 Avg QP:18.47 size: 44477
---[Information] [30.06.2019 19:42:47] x264 [info]: frame P:33949 Avg QP:20.48 size: 16687
---[Information] [30.06.2019 19:42:47] x264 [info]: frame B:131218 Avg QP:22.70 size: 4183
General
Unique ID : 106984785629956047407686155927418295477 (0x507C852D64096564EE72C98ABDA7D4B5)
Complete name : C:\temp\Le chant du loup\Le.chant.du.loup.2019.BDRip.x264.Rus.stalkerok.New-Team.mkv
Format : Matroska
Format version : Version 4 / Version 2
File size : 1.46 GiB
Duration : 1 h 55 min
Overall bit rate : 1 804 kb/s
Movie name : Le chant du loup (The Wolf's Call) (2019) | Rip by stalkerok
Encoded date : UTC 2019-06-30 16:56:41
Writing application : mkvmerge v33.1.0 ('Primrose') 64-bit
Writing library : libebml v1.3.7 + libmatroska v1.5.0
Video
ID : 1
Format : AVC
Format/Info : Advanced Video Codec
Format profile : High@L4.1
Format settings, CABAC : Yes
Format settings, ReFrames : 12 frames
Codec ID : V_MPEG4/ISO/AVC
Duration : 1 h 55 min
Bit rate : 1 354 kb/s
Width : 1 046 pixels
Height : 438 pixels
Display aspect ratio : 2.40:1
Frame rate mode : Constant
Frame rate : 23.976 FPS
Color space : YUV
Chroma subsampling : 4:2:0
Bit depth : 8 bits
Scan type : Progressive
Bits/(Pixel*Frame) : 0.123
Stream size : 1.10 GiB (75%)
Title : Le chant du loup (The Wolf's Call) (2019) | Rip by stalkerok
Writing library : x264 core 157 r2945 72db437
Encoding settings : cabac=1 / ref=12 / deblock=1:-3:-2 / analyse=0x3:0x133 / me=umh / subme=10 / psy=1 / psy_rd=1.00:0.00 / mixed_ref=1 / me_range=32 / chroma_me=1 / trellis=2 / 8x8dct=1 / cqm=0 / deadzone=21,11 / fast_pskip=0 / chroma_qp_offset=-2 / threads=12 / lookahead_threads=3 / sliced_threads=0 / nr=0 / decimate=1 / interlaced=0 / bluray_compat=0 / constrained_intra=0 / bframes=14 / b_pyramid=2 / b_adapt=2 / b_bias=0 / direct=3 / weightb=1 / open_gop=0 / weightp=2 / keyint=240 / keyint_min=23 / scenecut=40 / intra_refresh=0 / rc_lookahead=60 / rc=crf / mbtree=0 / crf=20.2 / qcomp=0.65 / qpmin=0 / qpmax=69 / qpstep=4 / vbv_maxrate=50000 / vbv_bufsize=62500 / crf_max=0.0 / nal_hrd=none / filler=0 / ip_ratio=1.40 / pb_ratio=1.30 / aq=3:0.80 / zones=157771,166526,q=34
Default : Yes
Forced : No
Audio
ID : 2
Format : AC-3
Format/Info : Audio Coding 3
Mode extension : CM (complete main)
Format settings, Endianness : Big
Codec ID : A_AC3
Duration : 1 h 55 min
Bit rate mode : Constant
Bit rate : 448 kb/s
Channel(s) : 6 channels
Channel positions : Front: L C R, Side: L R, LFE
Sampling rate : 48.0 kHz
Frame rate : 31.250 FPS (1536 spf)
Compression mode : Lossy
Stream size : 371 MiB (25%)
Title : СВ Студия
Language : Russian
Default : Yes
Forced : No
Menu
00:00:00.000 : :Chapter 01
00:12:02.138 : :Chapter 02
00:22:56.792 : :Chapter 03
00:32:05.298 : :Chapter 04
00:40:23.880 : :Chapter 05
00:51:37.594 : :Chapter 06
01:01:49.289 : :Chapter 07
01:12:54.662 : :Chapter 08
01:19:21.131 : :Chapter 09
01:28:48.949 : :Chapter 10
01:39:49.567 : :Chapter 11
01:49:54.421 : :Chapter 12

Скриншоты

[opentorrent.pro].t4092.torrent 
Торрент: Зарегистрирован [ 2019-07-02 15:33 ] · 5E99DF6D323EFD90610632E46AF6E889F09395EE

Скачать .torrent

Скачать

15 KB

Статус: проверено
Скачан: 0 раз
Размер: 1,46 GB  ·  Тип торрента
terms.php
Показать сообщения:    

Текущее время: 05-Авг 01:20

Часовой пояс: UTC ± 0



Вы не можете начинать темы
Вы не можете отвечать на сообщения
Вы не можете редактировать свои сообщения
Вы не можете удалять свои сообщения
Вы не можете голосовать в опросах
Вы не можете прикреплять файлы к сообщениям
Вы можете скачивать файлы