Статистика раздачи
Размер:  1,36 GB   |    Зарегистрирован:  1 год   |    Скачан:  0 раз
DL-List: Нет

Полного источника не было: Никогда

 
     
 
 

Гость ®

Пол:
Не указан

Выборы-Выборы / Grassroots
Страна: США
Жанр: Комедия
Год выпуска: 2012
Продолжительность: 01:38:15
Перевод: Профессиональный (многоголосый закадровый)
Субтитры: нет
Режиссер: Стивен Джилленхол
В ролях: Джейсон Биггз, Джоэль Мур, Лорен Эмброуз, Коби Смолдерс, Том Арнольд, Кристофер Макдональд, Седрик «Развлекатель», Тодд Стэшвик, Д.С. Пирсон, Эмили Бергл и др.
Описание: После того, как журналист Фил Кэмпбел потерял свою работу, он соглашается помочь своему чудаковатому другу получить место в городском совете Сиэтла.
Сэмпл: http://multi-up.com/1235812
Качество видео: WEB-DLRip
Формат видео: AVI
Видео: DivX 6, 720x480, 1 768 Kbps, 3:2, 23.976 fps
Аудио: Layer 3, MP3, 192 Kbps, 44.1 KHz, 2 channels

MediaInfo

General
Complete name
Format : AVI
Format/Info : Audio Video Interleave
Format profile : OpenDML
File size : 1.36 GiB
Duration : 1h 38mn
Overall bit rate : 1 975 Kbps
Writing application : Lavf57.25.100
Video
ID : 0
Format : MPEG-4 Visual
Format profile : Simple@L1
Format settings, BVOP : No
Format settings, QPel : No
Format settings, GMC : No warppoints
Format settings, Matrix : Default (H.263)
Codec ID : DIVX
Codec ID/Info : Project Mayo
Codec ID/Hint : DivX 4
Duration : 1h 38mn
Bit rate : 1 768 Kbps
Width : 720 pixels
Height : 480 pixels
Display aspect ratio : 3:2
Original display aspect ratio : 3:2
Frame rate : 23.976 fps
Standard : NTSC
Color space : YUV
Chroma subsampling : 4:2:0
Bit depth : 8 bits
Scan type : Progressive
Compression mode : Lossy
Bits/(Pixel*Frame) : 0.213
Stream size : 1.21 GiB (90%)
Writing library : Lavc57.24.102
Audio
ID : 1
Format : MPEG Audio
Format version : Version 1
Format profile : Layer 3
Mode : Joint stereo
Codec ID : 55
Codec ID/Hint : MP3
Duration : 1h 38mn
Bit rate mode : Constant
Bit rate : 192 Kbps
Channel(s) : 2 channels
Sampling rate : 44.1 KHz
Compression mode : Lossy
Stream size : 135 MiB (10%)
Alignment : Aligned on interleaves
Interleave, duration : 26 ms (0.63 video frame)
Interleave, preload duration : 26 ms
Writing library : LAME3.99.5

Скриншот c названием фильма

Скриншоты

[opentorrent.pro].t4094.torrent 
Торрент: Зарегистрирован [ 2019-07-02 15:33 ] · 14EFFBD3355FDDE24DFFC66DC3279B9AA9C261C4

Скачать .torrent

Скачать

14 KB

Статус: проверено
Скачан: 0 раз
Размер: 1,36 GB  ·  Тип торрента
terms.php
Показать сообщения:    

Текущее время: 04-Июл 17:19

Часовой пояс: UTC ± 0



Вы не можете начинать темы
Вы не можете отвечать на сообщения
Вы не можете редактировать свои сообщения
Вы не можете удалять свои сообщения
Вы не можете голосовать в опросах
Вы не можете прикреплять файлы к сообщениям
Вы можете скачивать файлы