Статистика раздачи
Размер:  2,95 GB   |    Зарегистрирован:  11 месяцев   |    Скачан:  0 раз
DL-List: Нет
Сидов:  14  [  0 KB/s  ]   Личеров:  2  [  0 KB/s  ]  
 
     
 
 

Гость ®

Пол:
Не указан

Зов волка
Le chant du loup
«Когда нет места страху, нет права на ошибку и нет времени на раздумья...»
Страна: Франция
Жанр: боевик, драма
Год выпуска: 2019
Продолжительность: 01:55:45
Перевод: Профессиональный (многоголосый, закадровый) [СВ Студия]
Субтитры: английские (полные), французские (полные, SDH)
Оригинальная аудиодорожка: французский
Режиссер: Антонин Бодри / Antonin Baudry
В ролях: Франсуа Сивиль, Омар Си, Матьё Кассовиц, Реда Катеб, Паула Бир, Алексис Михалик, Жан-Ив Бертело, Дамиен Боннар, Себастьен Либессар
Описание: Молодой подводник обладает редким даром распознавать каждый звук, который он слышит. От его «Золотого уха» зависят судьбы людей, а ошибка ставит под угрозу жизнь всего экипажа подводной лодки. Желая вернуть доверие своих товарищей, он проводит собственное расследование военной провокации, в результате которой весь мир оказывается в шаге от ядерного апокалипсиса. Чтобы предотвратить мировую войну, элитной боевой команде подлодки необходимо совершить невозможное, ведь главный приказ отмене не подлежит.

Автор рипа: stalkerok
Сэмпл
Качество видео: BDRip-AVC | Исходник: Le.Chant.du.Loup.2019.FRENCH.COMPLETE.BLURAY-UTT
Формат видео: MKV
Видео кодек: AVC
Аудио кодек: AC3
Видео: AVC, 2751 Кбит/сек, 1152x482 (2.40:1), 23,976 кадр/сек
Аудио №1: AC3, 448 Кбит/сек, 48 КГц, 5.1 - русский
Аудио №2: AC3, 448 Кбит/сек, 48 КГц, 5.1 - французский
Навигация по главам: есть

x264/MediaInfo

---[Information] [01.07.2019 0:17:01] x264 [info]: frame I:1355 Avg QP:16.20 size: 70965
---[Information] [01.07.2019 0:17:01] x264 [info]: frame P:34397 Avg QP:18.43 size: 30075
---[Information] [01.07.2019 0:17:01] x264 [info]: frame B:130775 Avg QP:19.74 size: 9624
General
Unique ID : 78949099642543479102749713263908896217 (0x3B650B235DCD221F3FDBAE5D18E83DD9)
Complete name : C:\temp\Le chant du loup\Le.chant.du.loup.2019.BDRip.x264.Rus.Fre.stalkerok.New-Team.mkv
Format : Matroska
Format version : Version 4
File size : 2.95 GiB
Duration : 1 h 55 min
Overall bit rate : 3 650 kb/s
Movie name : Le chant du loup (The Wolf's Call) (2019) | Rip by stalkerok
Encoded date : UTC 2019-07-01 15:10:05
Writing application : mkvmerge v33.1.0 ('Primrose') 64-bit
Writing library : libebml v1.3.7 + libmatroska v1.5.0
Video
ID : 1
Format : AVC
Format/Info : Advanced Video Codec
Format profile : High@L4.1
Format settings : CABAC / 12 Ref Frames
Format settings, CABAC : Yes
Format settings, RefFrames : 12 frames
Codec ID : V_MPEG4/ISO/AVC
Duration : 1 h 55 min
Bit rate : 2 752 kb/s
Width : 1 152 pixels
Height : 482 pixels
Display aspect ratio : 2.40:1
Frame rate mode : Constant
Frame rate : 23.976 FPS
Color space : YUV
Chroma subsampling : 4:2:0
Bit depth : 8 bits
Scan type : Progressive
Bits/(Pixel*Frame) : 0.207
Stream size : 2.23 GiB (75%)
Title : Le chant du loup (The Wolf's Call) (2019) | Rip by stalkerok
Writing library : x264 core 157 r2945 72db437
Encoding settings : cabac=1 / ref=12 / deblock=1:-3:-2 / analyse=0x3:0x133 / me=umh / subme=10 / psy=1 / psy_rd=1.00:0.00 / mixed_ref=1 / me_range=32 / chroma_me=1 / trellis=2 / 8x8dct=1 / cqm=0 / deadzone=21,11 / fast_pskip=0 / chroma_qp_offset=-2 / threads=12 / lookahead_threads=3 / sliced_threads=0 / nr=0 / decimate=1 / interlaced=0 / bluray_compat=0 / constrained_intra=0 / bframes=13 / b_pyramid=2 / b_adapt=2 / b_bias=0 / direct=3 / weightb=1 / open_gop=0 / weightp=2 / keyint=240 / keyint_min=23 / scenecut=40 / intra_refresh=0 / rc_lookahead=60 / rc=crf / mbtree=0 / crf=18.4 / qcomp=0.65 / qpmin=0 / qpmax=69 / qpstep=4 / vbv_maxrate=50000 / vbv_bufsize=62500 / crf_max=0.0 / nal_hrd=none / filler=0 / ip_ratio=1.40 / pb_ratio=1.30 / aq=3:0.80 / zones=157771,166526,q=30
Default : Yes
Forced : No
Audio #1
ID : 2
Format : AC-3
Format/Info : Audio Coding 3
Commercial name : Dolby Digital
Codec ID : A_AC3
Duration : 1 h 55 min
Bit rate mode : Constant
Bit rate : 448 kb/s
Channel(s) : 6 channels
Channel layout : L R C LFE Ls Rs
Sampling rate : 48.0 kHz
Frame rate : 31.250 FPS (1536 SPF)
Bit depth : 16 bits
Compression mode : Lossy
Stream size : 371 MiB (12%)
Title : СВ Студия
Language : Russian
Service kind : Complete Main
Default : Yes
Forced : No
Audio #2
ID : 3
Format : AC-3
Format/Info : Audio Coding 3
Commercial name : Dolby Digital
Codec ID : A_AC3
Duration : 1 h 55 min
Bit rate mode : Constant
Bit rate : 448 kb/s
Channel(s) : 6 channels
Channel layout : L R C LFE Ls Rs
Sampling rate : 48.0 kHz
Frame rate : 31.250 FPS (1536 SPF)
Bit depth : 16 bits
Compression mode : Lossy
Stream size : 371 MiB (12%)
Language : French
Service kind : Complete Main
Default : No
Forced : No
Text #1
ID : 4
Format : UTF-8
Codec ID : S_TEXT/UTF8
Codec ID/Info : UTF-8 Plain Text
Duration : 1 h 55 min
Bit rate : 37 b/s
Count of elements : 1168
Stream size : 31.4 KiB (0%)
Language : English
Default : No
Forced : No
Text #2
ID : 5
Format : UTF-8
Codec ID : S_TEXT/UTF8
Codec ID/Info : UTF-8 Plain Text
Duration : 1 h 52 min
Bit rate : 51 b/s
Count of elements : 1260
Stream size : 42.0 KiB (0%)
Language : French
Default : No
Forced : No
Text #3
ID : 6
Format : UTF-8
Codec ID : S_TEXT/UTF8
Codec ID/Info : UTF-8 Plain Text
Duration : 1 h 54 min
Bit rate : 54 b/s
Count of elements : 1629
Stream size : 45.5 KiB (0%)
Title : SDH
Language : French
Default : No
Forced : No
Menu
00:00:00.000 : :Chapter 01
00:12:02.138 : :Chapter 02
00:22:56.792 : :Chapter 03
00:32:05.298 : :Chapter 04
00:40:23.880 : :Chapter 05
00:51:37.594 : :Chapter 06
01:01:49.289 : :Chapter 07
01:12:54.662 : :Chapter 08
01:19:21.131 : :Chapter 09
01:28:48.949 : :Chapter 10
01:39:49.567 : :Chapter 11
01:49:54.421 : :Chapter 12

Скриншоты

[opentorrent.pro].t4097.torrent 
Торрент: Зарегистрирован [ 2019-07-02 15:33 ] · 20EC5B22577D54106D4D14B12DE7B014059154FE

Скачать .torrent

Скачать

15 KB

Статус: проверено
Скачан: 0 раз
Размер: 2,95 GB  ·  Тип торрента
terms.php
Показать сообщения:    

Текущее время: 02-Июл 09:44

Часовой пояс: UTC ± 0



Вы не можете начинать темы
Вы не можете отвечать на сообщения
Вы не можете редактировать свои сообщения
Вы не можете удалять свои сообщения
Вы не можете голосовать в опросах
Вы не можете прикреплять файлы к сообщениям
Вы можете скачивать файлы