Статистика раздачи
Размер:  1,21 GB   |    Зарегистрирован:  1 год   |    Скачан:  0 раз
DL-List: Нет

Полного источника не было: Никогда

 
     
 
 

serzh ®

Пол:
Не указан
Стаж:
1 год 3 месяца
Сообщений:
442

Торговцы войной / Merchants of War
Страна: США, ЮАР
Жанр: Боевик
Год выпуска: 1989
Продолжительность: 01:24:38
Перевод: Авторский (одноголосый закадровый) Антон Алексеев
Субтитры: нет
Оригинальная аудиодорожка: английский
Режиссер: Питер М. Маккензи / Peter Mackenzie
В ролях: Эшер Браунер, Джесси Винт, Джон Баррет, Робин Смит, Брайан Эндрюс, Норман Энсти,
Грэм Армитаж, Бонни Бек, Suanne Bralin, Milu Chiloquette
Описание: В центре истории фильма «Торговцы войной» находится Ник Дреннен, опытный
наемник, имеющий внушительный послужной список. За время своей активной деятельности он
ликвидировал множество опасных людей и не раз доказывал, что является лучшим из лучших. Ник
– настоящий профессионал в своем деле. Но он уже устал от непрерывных погонь, перестрелок и
драк. Ему хочется уйти на покой. И чтобы иметь средства, которых ему хватит до конца жизни, он
соглашается выполнить последнюю миссию, которая заключается в том, чтобы разрушить опасную
преступную группировку, базирующуюся на Ближнем Востоке.
Оказавшись на месте, Ник приступает к выполнению своей миссии. Однако во время проведения
операции что-то идет не так и Ник попадает в плен. С этого момента он подвергается пыткам.
Доп. информация: Дорожка с А. Алексеевым синхронизирована и наложена ale_x2008 при помощи Sony Vegas и VirtualDubMod.
За оцифрованную с VHS дорожку благодарим - robotron005

Релиз
Сэмпл: https://yadi.sk/i/ZKUbtjnLLGQPoA
Качество видео: DVDRip
Формат видео: AVI
Видео: XviD build 50, 672x512 (1.31:1), 23.976 fps, 1641 kbps avg, 0.2 bit/pixel
Аудио: AC3 Dolby Digital, 48000Hz, 2/0 (L,R) ch (mono), 192 kbps avg (AVO)
Аудио 2: AC3 Dolby Digital, 48000Hz, 2/0 (L,R) ch (mono), 192 kbps avg (Eng)

MediaInfo

Торговцы войной (Merchants of War) [by ale_x2008].avi
Format : AVI
Format/Info : Audio Video Interleave
File size : 1.21 GiB
Duration : 1 h 24 min
Overall bit rate : 2 041 kb/s
Movie name : Торговцы войной (Merchants of War) [by ale_x2008]
Director : by ale_X2008
Writing application : VirtualDubMod 1.5.10.3 (build 2550/release)
Copyright : Edich2
Comment : RuTracker.org
Video
ID : 0
Format : MPEG-4 Visual
Format profile : Advanced Simple@L5
Format settings : BVOP1 / Custom Matrix
Format settings, BVOP : 1
Format settings, QPel : No
Format settings, GMC : No warppoints
Format settings, Matrix : Custom
Codec ID : XVID
Codec ID/Hint : XviD
Duration : 1 h 24 min
Bit rate : 1 642 kb/s
Width : 672 pixels
Height : 512 pixels
Display aspect ratio : 4:3
Frame rate : 23.976 (24000/1001) FPS
Color space : YUV
Chroma subsampling : 4:2:0
Bit depth : 8 bits
Scan type : Progressive
Compression mode : Lossy
Bits/(Pixel*Frame) : 0.199
Stream size : 994 MiB (80%)
Writing library : XviD 1.2.1 (UTC 2008-12-04)
Audio #1
ID : 1
Format : AC-3
Format/Info : Audio Coding 3
Codec ID : 2000
Duration : 1 h 24 min
Bit rate mode : Constant
Bit rate : 192 kb/s
Channel(s) : 2 channels
Channel positions : Front: L R
Sampling rate : 48.0 kHz
Frame rate : 31.250 FPS (1536 SPF)
Bit depth : 16 bits
Compression mode : Lossy
Stream size : 116 MiB (9%)
Alignment : Split accross interleaves
Interleave, duration : 42 ms (1.00 video frame)
Interleave, preload duratio : 500 ms
Service kind : Complete Main
Audio #2
ID : 2
Format : AC-3
Format/Info : Audio Coding 3
Codec ID : 2000
Duration : 1 h 24 min
Bit rate mode : Constant
Bit rate : 192 kb/s
Channel(s) : 2 channels
Channel positions : Front: L R
Sampling rate : 48.0 kHz
Frame rate : 31.250 FPS (1536 SPF)
Bit depth : 16 bits
Compression mode : Lossy
Stream size : 116 MiB (9%)
Alignment : Split accross interleaves
Interleave, duration : 42 ms (1.00 video frame)
Interleave, preload duratio : 500 ms
Service kind : Complete Main
[opentorrent.pro].t4098.torrent 
Торрент: Зарегистрирован [ 2019-07-02 15:33 ] · 907DFB77362A9CD1AFD368760D4F6DBD5292B7B5

Скачать .torrent

Скачать

13 KB

Статус: проверено
Скачан: 0 раз
Размер: 1,21 GB  ·  Тип торрента
terms.php
Профиль [ЛС]
Показать сообщения:    

Текущее время: 08-Июл 07:56

Часовой пояс: UTC ± 0



Вы не можете начинать темы
Вы не можете отвечать на сообщения
Вы не можете редактировать свои сообщения
Вы не можете удалять свои сообщения
Вы не можете голосовать в опросах
Вы не можете прикреплять файлы к сообщениям
Вы можете скачивать файлы