Статистика раздачи
Размер:  2,11 GB   |    Зарегистрирован:  1 год   |    Скачан:  0 раз
DL-List: Нет
Сидов:  53  [  0 KB/s  ]   Личеров:  5  [  0 KB/s  ]  
 
     
 
 

Гость ®

Пол:
Не указан

Кладбище домашних животных
Pet Sematary
«Мёртвые должны оставаться мёртвыми»
Страна: США
Жанр: ужасы, триллер, детектив
Год выпуска: 2019
Продолжительность: 01:40:49
Перевод: Профессиональный (полное дублирование) [UHD Blu-Ray EUR]
Субтитры: русские (форсированные, полные), английские (полные, SDH)
Оригинальная аудиодорожка: английский
Режиссер: Кевин Колш / Kevin Kölsch, Деннис Уидмайер / Dennis Widmyer
В ролях: Джейсон Кларк, Эми Саймец, Джон Литгоу, Жете Лоранс, Хьюго Лавуа, Лукас Лавуа, Обсса Ахмед, Алисса Брук Ливайн, Мария Херрера, Фрэнк Скорпион
Описание: Семья Луиса Крида переезжает в сельский дом, который, как выясняется, расположен по соседству с мрачным Кладбищем домашних животных. Именно здесь по совету соседа Луис хоронит кота Чёрча - любимца семьи, погибшего под колесами грузовика. Вскоре кот возвращается к любящему семейству, но, кажется, это уже не тот ласковый питомец, которого так любила дочь Луиса.

Автор рипа: stalkerok
Сэмпл
Качество видео: BDRip-AVC | Исходник: Pet Sematary 2019 1080p BluRay Remux AVC TrueHD 7.1-iFT
Формат видео: MKV
Видео кодек: AVC
Аудио кодек: AC3
Видео: AVC, 2093 Кбит/сек, 1152x482 (2.40:1), 23,976 кадр/сек
Аудио №1: AC3, 448 Кбит/сек, 48 КГц, 5.1 - русский
Аудио №2: AC3, 448 Кбит/сек, 48 КГц, 5.1 - английский
Навигация по главам: есть

x264/MediaInfo

---[Information] [02.07.2019 13:16:15] x264 [info]: frame I:1090 Avg QP:13.93 size: 75501
---[Information] [02.07.2019 13:16:15] x264 [info]: frame P:28646 Avg QP:15.58 size: 25597
---[Information] [02.07.2019 13:16:15] x264 [info]: frame B:115315 Avg QP:17.30 size: 6658
General
Unique ID : 174774869441371202116189810018580957066 (0x837C6A5B7A7CDE66F9631D518AE4078A)
Complete name : C:\temp\Pet.Sematary\Pet.Sematary.2019.BDRip.x264.Rus.Eng.stalkerok.New-Team.mkv
Format : Matroska
Format version : Version 4
File size : 2.11 GiB
Duration : 1 h 40 min
Overall bit rate : 2 992 kb/s
Movie name : Pet Sematary (2019) | Rip by stalkerok
Encoded date : UTC 2019-07-02 10:23:58
Writing application : mkvmerge v33.1.0 ('Primrose') 64-bit
Writing library : libebml v1.3.7 + libmatroska v1.5.0
Video
ID : 1
Format : AVC
Format/Info : Advanced Video Codec
Format profile : High@L4.1
Format settings : CABAC / 12 Ref Frames
Format settings, CABAC : Yes
Format settings, RefFrames : 12 frames
Codec ID : V_MPEG4/ISO/AVC
Duration : 1 h 40 min
Bit rate : 2 094 kb/s
Width : 1 152 pixels
Height : 482 pixels
Display aspect ratio : 2.40:1
Frame rate mode : Constant
Frame rate : 23.976 FPS
Color space : YUV
Chroma subsampling : 4:2:0
Bit depth : 8 bits
Scan type : Progressive
Bits/(Pixel*Frame) : 0.157
Stream size : 1.47 GiB (70%)
Title : Pet Sematary (2019) | Rip by stalkerok
Writing library : x264 core 157 r2945 72db437
Encoding settings : cabac=1 / ref=12 / deblock=1:-3:-2 / analyse=0x3:0x133 / me=umh / subme=10 / psy=1 / psy_rd=1.00:0.00 / mixed_ref=1 / me_range=32 / chroma_me=1 / trellis=2 / 8x8dct=1 / cqm=0 / deadzone=21,11 / fast_pskip=0 / chroma_qp_offset=-2 / threads=12 / lookahead_threads=3 / sliced_threads=0 / nr=0 / decimate=1 / interlaced=0 / bluray_compat=0 / constrained_intra=0 / bframes=13 / b_pyramid=2 / b_adapt=2 / b_bias=0 / direct=3 / weightb=1 / open_gop=0 / weightp=2 / keyint=240 / keyint_min=23 / scenecut=40 / intra_refresh=0 / rc_lookahead=60 / rc=crf / mbtree=0 / crf=17.2 / qcomp=0.65 / qpmin=0 / qpmax=69 / qpstep=4 / vbv_maxrate=50000 / vbv_bufsize=62500 / crf_max=0.0 / nal_hrd=none / filler=0 / ip_ratio=1.40 / pb_ratio=1.30 / aq=3:0.80 / zones=139058,145050,q=30
Default : Yes
Forced : No
Audio #1
ID : 2
Format : AC-3
Format/Info : Audio Coding 3
Commercial name : Dolby Digital
Codec ID : A_AC3
Duration : 1 h 40 min
Bit rate mode : Constant
Bit rate : 448 kb/s
Channel(s) : 6 channels
Channel layout : L R C LFE Ls Rs
Sampling rate : 48.0 kHz
Frame rate : 31.250 FPS (1536 SPF)
Bit depth : 16 bits
Compression mode : Lossy
Stream size : 323 MiB (15%)
Language : Russian
Service kind : Complete Main
Default : Yes
Forced : No
Audio #2
ID : 3
Format : AC-3
Format/Info : Audio Coding 3
Commercial name : Dolby Digital
Codec ID : A_AC3
Duration : 1 h 40 min
Bit rate mode : Constant
Bit rate : 448 kb/s
Channel(s) : 6 channels
Channel layout : L R C LFE Ls Rs
Sampling rate : 48.0 kHz
Frame rate : 31.250 FPS (1536 SPF)
Bit depth : 16 bits
Compression mode : Lossy
Stream size : 323 MiB (15%)
Language : English
Service kind : Complete Main
Default : No
Forced : No
Text #1
ID : 4
Format : UTF-8
Codec ID : S_TEXT/UTF8
Codec ID/Info : UTF-8 Plain Text
Duration : 1 h 14 min
Bit rate : 1 b/s
Count of elements : 15
Stream size : 732 Bytes (0%)
Title : Forced
Language : Russian
Default : Yes
Forced : No
Text #2
ID : 5
Format : UTF-8
Codec ID : S_TEXT/UTF8
Codec ID/Info : UTF-8 Plain Text
Duration : 1 h 40 min
Bit rate : 50 b/s
Count of elements : 869
Stream size : 37.2 KiB (0%)
Title : Full
Language : Russian
Default : No
Forced : No
Text #3
ID : 6
Format : UTF-8
Codec ID : S_TEXT/UTF8
Codec ID/Info : UTF-8 Plain Text
Duration : 1 h 36 min
Bit rate : 36 b/s
Count of elements : 897
Stream size : 25.4 KiB (0%)
Title : Full
Language : English
Default : No
Forced : No
Text #4
ID : 7
Format : UTF-8
Codec ID : S_TEXT/UTF8
Codec ID/Info : UTF-8 Plain Text
Duration : 1 h 36 min
Bit rate : 45 b/s
Count of elements : 1211
Stream size : 32.6 KiB (0%)
Title : SDH
Language : English
Default : No
Forced : No
Menu
00:00:00.000 : en:Chapter 01
00:07:16.353 : en:Chapter 02
00:12:14.025 : en:Chapter 03
00:19:38.386 : en:Chapter 04
00:25:30.070 : en:Chapter 05
00:30:09.725 : en:Chapter 06
00:35:18.325 : en:Chapter 07
00:46:02.843 : en:Chapter 08
00:50:44.792 : en:Chapter 09
00:57:47.964 : en:Chapter 10
01:06:57.722 : en:Chapter 11
01:14:12.573 : en:Chapter 12
01:22:52.009 : en:Chapter 13
01:32:19.909 : en:Chapter 14
01:36:41.295 : en:Chapter 15

Скриншоты

[opentorrent.pro].t4109.torrent 
Торрент: Зарегистрирован [ 2019-07-02 15:33 ] · 4F967C3D75AD9736482323CDA5A4476049BE38A8

Скачать .torrent

Скачать

11 KB

Статус: проверено
Скачан: 0 раз
Размер: 2,11 GB  ·  Тип торрента
terms.php
Показать сообщения:    

Текущее время: 04-Июл 18:59

Часовой пояс: UTC ± 0



Вы не можете начинать темы
Вы не можете отвечать на сообщения
Вы не можете редактировать свои сообщения
Вы не можете удалять свои сообщения
Вы не можете голосовать в опросах
Вы не можете прикреплять файлы к сообщениям
Вы можете скачивать файлы