Статистика раздачи
Размер:  2,18 GB   |    Зарегистрирован:  11 месяцев   |    Скачан:  0 раз
DL-List: Нет

Полного источника не было: Никогда

 
     
 
 

Гость ®

Пол:
Не указан

Дамбо / Dumbo
Страна: США
Жанр: фэнтези, семейный
Год выпуска: 2019
Продолжительность: 01:51:56-Перевод: Профессиональный (дублированный) | iTunes
Субтитры: русские (forced, full), английские (full, SDH)
Оригинальная аудиодорожка: английский-Режиссер: Тим Бёртон / Tim Burton-В ролях: Колин Фаррелл, Майкл Китон, Дэнни ДеВито, Ева Грин, Алан Аркин, Нико Паркер, Финли Хоббинс, Рошан Сет, Ларс Айдингер, Деобиа Опарей-Описание: Цирковой импресарио Макс Медичи назначает бывшую звезду цирка Холта Фэрриера и его детей Милли и Джо опекунами новорожденного слонёнка, чьи невероятно большие уши сразу становятся предметом для постоянных шуток и насмешек коллег Холта по цеху. Внезапно узнав, что Дамбо умеет летать, владелец цирка решает нажиться на необычных способностях слонёнка. К делу подключается энергичный предприниматель В. А. Вэндевер, который решает сделать из малыша Дамбо главную звезду своего нового грандиозного развлекательного предприятия «Сказочная страна».- -Качество видео: BDRip | Dumbo.2019.BDREMUX.1080p.seleZen
Формат видео: AVI
Видео: 720x384 (1.88:1), 23.976 fps, XviD build 73 ~2016 kbps avg, 0.30 bit/pixel
Аудио 1: 48 kHz, AC3 Dolby Digital, 3/2 (L,C,R,l,r) + LFE ch, ~384 kbps | rus
Аудио 2: 48 kHz, AC3 Dolby Digital, 3/2 (L,C,R,l,r) + LFE ch, ~384 kbps | eng-Сэмпл-

MediaInfo

Код:Формат : AVI
Формат/Информация : Audio Video Interleave
Профиль формата : OpenDML
Размер файла : 2,18 Гбайт
Продолжительность : 1 ч. 51 м.
Общий поток : 2792 Кбит/сек
Название фильма : Дамбо_2019_BDRip
Программа кодирования : VirtualDubMod 1.5.10.3 | www.virtualdub-fr.org || (build 2550/release)
Авторское право : порошков
Видео
Идентификатор : 0
Формат : MPEG-4 Visual
Профиль формата : Advanced Simple@L5
Настройки формата : BVOP1 / Custom Matrix
Параметр BVOP формата : 1
Параметр QPel формата : Нет
Параметр GMC формата : Без точки перехода
Параметр матрицы формата : Выборочная
Идентификатор кодека : XVID
Идентификатор кодека/Подсказка : XviD
Продолжительность : 1 ч. 51 м.
Битрейт : 2006 Кбит/сек
Ширина : 720 пикселей
Высота : 384 пикселя
Соотношение сторон : 1,85:1
Частота кадров : 23,976 (24000/1001) кадра/сек
Цветовое пространство : YUV
Субдискретизация насыщенности : 4:2:0
Битовая глубина : 8 бит
Тип развёртки : Прогрессивная
Метод сжатия : С потерями
Бит/(Пиксели*Кадры) : 0.303
Размер потока : 1,57 Гбайт (72%)
Библиотека кодирования : XviD 73
Аудио #1
Идентификатор : 1
Формат : AC-3
Формат/Информация : Audio Coding 3
Коммерческое название : Dolby Digital
Идентификатор кодека : 2000
Продолжительность : 1 ч. 51 м.
Вид битрейта : Постоянный
Битрейт : 384 Кбит/сек
Каналы : 6 каналов
ChannelLayout : L R C LFE Ls Rs
Частота : 48,0 КГц
Частота кадров : 31,250 кадров/сек (1536 SPF)
Битовая глубина : 16 бит
Метод сжатия : С потерями
Размер потока : 307 Мбайт (14%)
Выравнивание : Разделение по промежуткам
Продолжительность промежутка : 42 мс. (1,00 видеокадр)
Время предзагрузки промежутка : 500 мс.
Заголовок : Rus
ServiceKind/String : Complete Main
Аудио #2
Идентификатор : 2
Формат : AC-3
Формат/Информация : Audio Coding 3
Коммерческое название : Dolby Digital
Идентификатор кодека : 2000
Продолжительность : 1 ч. 51 м.
Вид битрейта : Постоянный
Битрейт : 384 Кбит/сек
Каналы : 6 каналов
ChannelLayout : L R C LFE Ls Rs
Частота : 48,0 КГц
Частота кадров : 31,250 кадров/сек (1536 SPF)
Битовая глубина : 16 бит
Метод сжатия : С потерями
Размер потока : 307 Мбайт (14%)
Выравнивание : Разделение по промежуткам
Продолжительность промежутка : 42 мс. (1,00 видеокадр)
Время предзагрузки промежутка : 500 мс.
Заголовок : Eng
ServiceKind/String : Complete Main

Скриншоты


[opentorrent.pro].t4126.torrent 
Торрент: Зарегистрирован [ 2019-07-03 15:51 ] · 1C3899C8CFE1D410CB47BEACF165F3D2FA9804CC

Скачать .torrent

Скачать

12 KB

Статус: проверено
Скачан: 0 раз
Размер: 2,18 GB  ·  Тип торрента
terms.php
Показать сообщения:    

Текущее время: 02-Июл 08:41

Часовой пояс: UTC ± 0



Вы не можете начинать темы
Вы не можете отвечать на сообщения
Вы не можете редактировать свои сообщения
Вы не можете удалять свои сообщения
Вы не можете голосовать в опросах
Вы не можете прикреплять файлы к сообщениям
Вы можете скачивать файлы